Ты и я / Io e te (Бернардо Бертолуччи / Bernardo Bertolucci) [2012, Италия, Драма, DVD9] MVO (Кармен Фильм) + Sub Rus + Original Ita

Reply to topic
 
Author
Message

Faust ®

Gender: Unknown

Longevity: 9 years 6 months

Posts: 14955

Reputation: 0 [+] [-]

Faust · Post 26-May-2014 00:40

[Quote] 

Ты и я / Io e te
Страна: Италия
Студия: HanWay Films
Издатель: Кармен Фильм (лицензия)
Жанр: Драма
Год выпуска: 2012
Продолжительность: 01:32:25
Перевод: Профессиональный (многоголосый закадровый)
Cубтитры: русские
Оригинальная аудиодорожка: итальянский
Режиссер: Бернардо Бертолуччи / Bernardo Bertolucci
В ролях: Теа Фалько, Якопо Ольмо Антинори, Соня Бергамаско, Вероника Лазар, Томмазо Раньо, Пиппо Дельбонно, Родольфо Корсато, Франческа Де Мартини, Джон Пол Росси
Описание: Лоренцо - четырнадцатилетний мизантроп, предпочитающий группу The Cure в наушниках общению с одноклассниками, сообщает маме, что едет с классом кататься на лыжах, а сам закупает провианта на неделю и запирается в подвале собственного дома — читать книжки, слушать Arcade Fire и прекрасно проводить время с самим собой. Идиллию нарушает внезапно объявившаяся сводная сестра...
Меню: Есть, русифицированное
Предпросмотр: http://multi-up.com/866213
Тип релиза: DVD9
Контейнер: DVD-Video
Видео: MPEG-2, PAL, 720x576, 16:9, 8500 Кбит/сек, 25 к/сек
Аудио: AC3, 6 ch, 384 kbps (Многоголосый, Русский)
Аудио 2: AC3, 2 ch, 192 kbps (Многоголосый, Русский)
Аудио 3: AC3, 6 ch, 384 kbps (Оригинал, Итальянский)

MediaInfo

Общее
Полное имя : D:\Videos\Ты и я\VIDEO_TS\VTS_01_3.VOB
Формат : MPEG-PS
Размер файла : 1024 Мбайт
Продолжительность : 14 м.
Общий поток : 9617 Кбит/сек
Видео
Идентификатор : 224 (0xE0)
Формат : MPEG Video
Версия формата : Version 2
Профиль формата : Main@Main
Параметр BVOP формата : Да
Параметр матрицы формата : Выборочная
Параметр GOP формата : M=3, N=15
Продолжительность : 14 м.
Битрейт : 8500 Кбит/сек
Ширина : 720 пикселей
Высота : 576 пикселей
Соотношение сторон : 16:9
Частота кадров : 25,000 кадров/сек
Стандарт вещания : PAL
Цветовое пространство : YUV
Субдискретизация насыщенности : 4:2:0
Битовая глубина : 8 бит
Тип развёртки : Чересстрочная
Порядок развёртки : Верхнее поле первое
Метод сжатия : С потерями
Бит/(Пиксели*Кадры) : 0.820
TimeCode_FirstFrame : 00:29:46:04
TimeCode_Source : Group of pictures header
Размер потока : 901 Мбайт (88%)
Аудио #1
Идентификатор : 189 (0xBD)-128 (0x80)
Формат : AC-3
Формат/Информация : Audio Coding 3
Расширение режима : CM (complete main)
Параметр Endianness формата : Big
Режим смешивания : DVD-Video
Продолжительность : 14 м.
Вид битрейта : Постоянный
Битрейт : 384 Кбит/сек
Каналы : 6 каналов
Расположение каналов : Front: L C R, Side: L R, LFE
Частота : 48,0 КГц
Битовая глубина : 16 бит
Метод сжатия : С потерями
Задержка видео : -576 мс.
Размер потока : 40,9 Мбайт (4%)
Аудио #2
Идентификатор : 189 (0xBD)-129 (0x81)
Формат : AC-3
Формат/Информация : Audio Coding 3
Расширение режима : CM (complete main)
Параметр Endianness формата : Big
Режим смешивания : DVD-Video
Продолжительность : 14 м.
Вид битрейта : Постоянный
Битрейт : 192 Кбит/сек
Каналы : 2 канала
Расположение каналов : Front: L R
Частота : 48,0 КГц
Битовая глубина : 16 бит
Метод сжатия : С потерями
Задержка видео : -576 мс.
Размер потока : 20,4 Мбайт (2%)
Аудио #3
Идентификатор : 189 (0xBD)-130 (0x82)
Формат : AC-3
Формат/Информация : Audio Coding 3
Расширение режима : CM (complete main)
Параметр Endianness формата : Big
Режим смешивания : DVD-Video
Продолжительность : 14 м.
Вид битрейта : Постоянный
Битрейт : 384 Кбит/сек
Каналы : 6 каналов
Расположение каналов : Front: L C R, Side: L R, LFE
Частота : 48,0 КГц
Битовая глубина : 16 бит
Метод сжатия : С потерями
Задержка видео : -576 мс.
Размер потока : 40,9 Мбайт (4%)
Текст
Идентификатор : 189 (0xBD)-32 (0x20)
Формат : RLE
Формат/Информация : Run-length encoding
Режим смешивания : DVD-Video
Продолжительность : 14 м.
Задержка видео : 1 с. 480 мс.
Меню

DVDInfo

Title: Transcend
Size: 6.41 Gb ( 6 725 134 KBytes ) - DVD-9
Enabled regions: 1, 2, 3, 4, 5, 6, 7, 8
VTS_01 :
Play Length: 00:00:01+01:32:24
Video: PAL 16:9 (720x576) VBR, Auto Pan&Scan
Audio:
Russian (Dolby AC3, 6 ch)
Russian (Dolby AC3, 2 ch)
Italiano (Dolby AC3, 6 ch)
Subtitles:
Russian
VTS_02 :
Play Length: 00:00:01+00:00:05+00:00:13
Video: PAL 16:9 (720x576) VBR, Auto Pan&Scan
Audio:
Russian (Dolby AC3, 6 ch)
VTS_03 :
Play Length: 00:00:01+00:00:08
Video: PAL 16:9 (720x576) VBR, Auto Pan&Scan
Audio:
Russian (Dolby AC3, 2 ch)
VTS_04 :
Play Length: 00:00:01+00:00:39
Video: PAL 16:9 (720x576) VBR, Auto Pan&Scan
Audio:
Russian (Dolby AC3, 2 ch)
Menu Video:
NTSC 4:3 (720x480) VBR
Auto Pan&Scan, Auto Letterboxed
Menu Russian Language Unit :
Root Menu
Angle menu

Скриншоты меню

[Profile]  [PM] 
Display posts:    
Reply to topic

Current time is: 14-Apr 00:41

All times are UTC + 2



You cannot post new topics in this forum
You cannot reply to topics in this forum
You cannot edit your posts in this forum
You cannot delete your posts in this forum
You cannot vote in polls in this forum
You cannot attach files in this forum
You cannot download files in this forum