Раздолбай / Особенности холостяцкой вечеринки / Staggered / Mad Wedding (Мартин Клунс / Martin Clunes) [1994, Великобритания, Комедия, DVD9 (Custom)] R2 MVO (ОРТ) + Original (Eng)

Reply to topic
 
Author
Message

Faust ®

Gender: Unknown

Longevity: 9 years 6 months

Posts: 14961

Reputation: 0 [+] [-]

Faust · Post 26-May-2014 00:41

[Quote] 

Раздолбай / Особенности холостяцкой вечеринки / Staggered / Mad Wedding- Страна: Великобритания
Студия: Big Deal Pictures
Жанр: Комедия
Год выпуска: 1994
Продолжительность: 01:35:10-Перевод: Профессиональный (многоголосый закадровый) [ОРТ]
Cубтитры: нет
Оригинальная аудиодорожка: английский-Режиссер: Мартин Клунс / Martin Clunes-В ролях: Мартин Клунес, Майкл Прейд, Мишель Уинстэнли, Кейт Байерс, Сара Уинмэн, Дэвид Кософф, Хелена МакКарти, Сильвия Симс, Сион Тудор Оуэн, Вирджиния МакКенна-Описание: Молодой парень, работающий в детской секции супермаркета демонстратором игрушек, собрался жениться. По традиции друзья устроили мальчишник. Один из приятелей подсыпал чего-то в кружку пива. И жених отрубился… В лондонском кабаке… А проснулся в неизвестном месте, на берегу океана, в холодных волнах прибоя, совершенно голым, в абсолютно безлюдной местности. Впрочем, одну фигурку на горизонте наш герой все-таки заприметил: старушка стояла на холме… Она и объяснила жениху, что он — на окраине какого-то шотландского островка… Долог же будет путь парня на собственную свадьбу! Как бы ему не опоздать!..-Доп. информация: DVD R2. Русская звуковая дорожка стоит первой, дорожки переключаются с пульта плеера!
Бонусы: включают фотогаллерею и фильмографии
Меню: есть, язык английский, статичное, озвученное-Sample | IMDB | КиноПоиск-Тип релиза: DVD9 (Custom)
Контейнер: DVD-Video-Видео: PAL 4:3 (720x576) VBR
Аудио 1: AC3, 2/0 ch, 192Kbps, Delay 0 mSec [Russian_MVO]
Аудио 2: AC3, 2/0 ch, 224Kbps, Delay 0 mSec [Original_Eng]--

Используемое ПО

1. PgcDemux - разборка оригинального DVD;
2. MuxMan - сборка DVD;
3. DVDReMake Pro - финальный проект.

DVDInfo

Title:
Size: 6.37 Gb ( 6 681 400 KBytes ) - DVD-9
Enabled regions: 1, 2, 3, 4, 5, 6, 7, 8
VTS_01 :
Play Length: 01:35:08+00:00:01+00:00:04+00:00:14
Video: PAL 4:3 (720x576) VBR
Audio:
Russian (Dolby AC3, 2 ch)
English (Dolby AC3, 2 ch)
Subtitles:
Not specified
Menu Video:
NTSC 4:3 (720x480) VBR
Auto Pan&Scan, Auto Letterboxed
Menu English Language Unit :
Root Menu
Subpicture Menu
Angle menu

MediaInfo

General
Complete name : D:\Мои релизы\Staggered [DVD9]\VIDEO_TS\VIDEO_TS.BUP
Format : DVD Video
Format profile : Menu
File size : 8.00 KiB
Video
ID : 224 (0xE0)
Format : MPEG Video
Format version : Version 1
Bit rate mode : Variable
Width : 720 pixels
Height : 480 pixels
Display aspect ratio : 4:3
Frame rate : 29.970 fps
Standard : NTSC
Compression mode : Lossy
General
Complete name : D:\Мои релизы\Staggered [DVD9]\VIDEO_TS\VIDEO_TS.IFO
Format : DVD Video
Format profile : Menu
File size : 8.00 KiB
Video
ID : 224 (0xE0)
Format : MPEG Video
Format version : Version 1
Bit rate mode : Variable
Width : 720 pixels
Height : 480 pixels
Display aspect ratio : 4:3
Frame rate : 29.970 fps
Standard : NTSC
Compression mode : Lossy
General
Complete name : D:\Мои релизы\Staggered [DVD9]\VIDEO_TS\VTS_01_0.BUP
Format : DVD Video
Format profile : Program
File size : 68.0 KiB
Duration : 1h 35mn
Overall bit rate : 97 bps
Video
ID : 224 (0xE0)
Format : MPEG Video
Format version : Version 2
Duration : 1h 35mn
Bit rate mode : Variable
Width : 720 pixels
Height : 576 pixels
Display aspect ratio : 4:3
Frame rate : 25.000 fps
Standard : PAL
Compression mode : Lossy
Audio #1
ID : 128 (0x80)
Format : AC-3
Format/Info : Audio Coding 3
Duration : 1h 35mn
Channel(s) : 2 channels
Sampling rate : 48.0 KHz
Compression mode : Lossy
Language : Russian
Audio #2
ID : 129 (0x81)
Format : AC-3
Format/Info : Audio Coding 3
Duration : 1h 35mn
Channel(s) : 2 channels
Sampling rate : 48.0 KHz
Compression mode : Lossy
Language : English
Text
ID : 32 (0x20)
Format : RLE
Format/Info : Run-length encoding
Bit depth : 2 bits
Menu #1
Duration : 1h 35mn
00:00:00.000 : Chapter 1
00:03:58.160 : Chapter 2
00:10:43.240 : Chapter 3
00:15:12.080 : Chapter 4
00:19:49.760 : Chapter 5
00:24:16.000 : Chapter 6
00:28:39.640 : Chapter 7
00:33:19.920 : Chapter 8
00:37:20.160 : Chapter 9
00:40:27.880 : Chapter 10
00:46:57.880 : Chapter 11
00:56:16.360 : Chapter 12
01:02:51.560 : Chapter 13
01:05:05.720 : Chapter 14
01:10:06.800 : Chapter 15
01:13:01.520 : Chapter 16
01:19:07.600 : Chapter 17
01:22:31.440 : Chapter 18
01:25:39.160 : Chapter 19
01:30:39.720 : Chapter 20
01:32:09.680 : Chapter 21
List (Audio) : 0 / 1
List (Subtitles 4/3) : 0
List (Subtitles Wide) : 0
List (Subtitles Letterbox) : 0
List (Subtitles Pan&Scan) : 0
Menu #2
Duration : 960ms
00:00:00.000 : Chapter 1
00:00:00.480 : Chapter 2
List (Audio) : 0
List (Subtitles 4/3) : 0
List (Subtitles Wide) : 0
List (Subtitles Letterbox) : 0
List (Subtitles Pan&Scan) : 0
Menu #3
Duration : 1s 200ms
00:00:00.000 : Chapter 1 / Chapter 2 / Chapter 3
List (Audio) : 0
List (Subtitles 4/3) : 0
List (Subtitles Wide) : 0
List (Subtitles Letterbox) : 0
List (Subtitles Pan&Scan) : 0
General
Complete name : D:\Мои релизы\Staggered [DVD9]\VIDEO_TS\VTS_01_0.IFO
Format : DVD Video
Format profile : Program
File size : 68.0 KiB
Duration : 1h 35mn
Overall bit rate : 97 bps
Video
ID : 224 (0xE0)
Format : MPEG Video
Format version : Version 2
Duration : 1h 35mn
Bit rate mode : Variable
Width : 720 pixels
Height : 576 pixels
Display aspect ratio : 4:3
Frame rate : 25.000 fps
Standard : PAL
Compression mode : Lossy
Audio #1
ID : 128 (0x80)
Format : AC-3
Format/Info : Audio Coding 3
Duration : 1h 35mn
Channel(s) : 2 channels
Sampling rate : 48.0 KHz
Compression mode : Lossy
Language : Russian
Audio #2
ID : 129 (0x81)
Format : AC-3
Format/Info : Audio Coding 3
Duration : 1h 35mn
Channel(s) : 2 channels
Sampling rate : 48.0 KHz
Compression mode : Lossy
Language : English
Text
ID : 32 (0x20)
Format : RLE
Format/Info : Run-length encoding
Bit depth : 2 bits
Menu #1
Duration : 1h 35mn
00:00:00.000 : Chapter 1
00:03:58.160 : Chapter 2
00:10:43.240 : Chapter 3
00:15:12.080 : Chapter 4
00:19:49.760 : Chapter 5
00:24:16.000 : Chapter 6
00:28:39.640 : Chapter 7
00:33:19.920 : Chapter 8
00:37:20.160 : Chapter 9
00:40:27.880 : Chapter 10
00:46:57.880 : Chapter 11
00:56:16.360 : Chapter 12
01:02:51.560 : Chapter 13
01:05:05.720 : Chapter 14
01:10:06.800 : Chapter 15
01:13:01.520 : Chapter 16
01:19:07.600 : Chapter 17
01:22:31.440 : Chapter 18
01:25:39.160 : Chapter 19
01:30:39.720 : Chapter 20
01:32:09.680 : Chapter 21
List (Audio) : 0 / 1
List (Subtitles 4/3) : 0
List (Subtitles Wide) : 0
List (Subtitles Letterbox) : 0
List (Subtitles Pan&Scan) : 0
Menu #2
Duration : 960ms
00:00:00.000 : Chapter 1
00:00:00.480 : Chapter 2
List (Audio) : 0
List (Subtitles 4/3) : 0
List (Subtitles Wide) : 0
List (Subtitles Letterbox) : 0
List (Subtitles Pan&Scan) : 0
Menu #3
Duration : 1s 200ms
00:00:00.000 : Chapter 1 / Chapter 2 / Chapter 3
List (Audio) : 0
List (Subtitles 4/3) : 0
List (Subtitles Wide) : 0
List (Subtitles Letterbox) : 0
List (Subtitles Pan&Scan) : 0
General
Complete name : D:\Мои релизы\Staggered [DVD9]\VIDEO_TS\VTS_01_0.VOB
Format : MPEG-PS
File size : 5.68 MiB
Duration : 3mn 8s
Overall bit rate : 254 Kbps
Video
ID : 224 (0xE0)
Format : MPEG Video
Format version : Version 2
Format profile : Main@Main
Format settings, BVOP : No
Format settings, Matrix : Default
Duration : 3mn 8s
Bit rate mode : Variable
Bit rate : 24.5 Kbps
Nominal bit rate : 9 000 Kbps
Width : 720 pixels
Height : 576 pixels
Display aspect ratio : 4:3
Frame rate : 25.000 fps
Standard : PAL
Color space : YUV
Chroma subsampling : 4:2:0
Bit depth : 8 bits
Scan type : Progressive
Scan order : Top Field First
Compression mode : Lossy
Bits/(Pixel*Frame) : 0.002
Stream size : 562 KiB (10%)
Audio
ID : 128 (0x80)
Format : AC-3
Format/Info : Audio Coding 3
Mode extension : CM (complete main)
Duration : 3mn 8s
Bit rate mode : Constant
Bit rate : 224 Kbps
Channel(s) : 2 channels
Channel positions : Front: L R
Sampling rate : 48.0 KHz
Bit depth : 16 bits
Compression mode : Lossy
Video delay : 8ms
Stream size : 5.02 MiB (88%)
Text
ID : 32 (0x20)
Format : RLE
Format/Info : Run-length encoding
Menu
General
Complete name : D:\Мои релизы\Staggered [DVD9]\VIDEO_TS\VTS_01_1.VOB
Format : MPEG-PS
File size : 1 024 MiB
Duration : 14mn 57s
Overall bit rate : 9 573 Kbps
Video
ID : 224 (0xE0)
Format : MPEG Video
Format version : Version 2
Format profile : Main@Main
Format settings, BVOP : Yes
Format settings, Matrix : Default
Format settings, GOP : M=3, N=13
Duration : 14mn 57s
Bit rate mode : Variable
Bit rate : 9 000 Kbps
Width : 720 pixels
Height : 576 pixels
Display aspect ratio : 4:3
Frame rate : 25.000 fps
Standard : PAL
Color space : YUV
Chroma subsampling : 4:2:0
Bit depth : 8 bits
Scan type : Interlaced
Scan order : Top Field First
Compression mode : Lossy
Bits/(Pixel*Frame) : 0.868
Stream size : 959 MiB (94%)
Audio #1
ID : 128 (0x80)
Format : AC-3
Format/Info : Audio Coding 3
Mode extension : CM (complete main)
Duration : 14mn 57s
Bit rate mode : Constant
Bit rate : 192 Kbps
Channel(s) : 2 channels
Channel positions : Front: L R
Sampling rate : 48.0 KHz
Bit depth : 16 bits
Compression mode : Lossy
Stream size : 20.5 MiB (2%)
Audio #2
ID : 129 (0x81)
Format : AC-3
Format/Info : Audio Coding 3
Mode extension : CM (complete main)
Duration : 14mn 57s
Bit rate mode : Constant
Bit rate : 224 Kbps
Channel(s) : 2 channels
Channel positions : Front: L R
Sampling rate : 48.0 KHz
Bit depth : 16 bits
Compression mode : Lossy
Stream size : 24.0 MiB (2%)
Menu
General
Complete name : D:\Мои релизы\Staggered [DVD9]\VIDEO_TS\VTS_01_2.VOB
Format : MPEG-PS
File size : 1 024 MiB
Duration : 14mn 57s
Overall bit rate : 9 572 Kbps
Video
ID : 224 (0xE0)
Format : MPEG Video
Format version : Version 2
Format profile : Main@Main
Format settings, BVOP : Yes
Format settings, Matrix : Default
Format settings, GOP : M=3, N=13
Duration : 14mn 57s
Bit rate mode : Variable
Bit rate : 9 000 Kbps
Width : 720 pixels
Height : 576 pixels
Display aspect ratio : 4:3
Frame rate : 25.000 fps
Standard : PAL
Color space : YUV
Chroma subsampling : 4:2:0
Bit depth : 8 bits
Scan type : Interlaced
Scan order : Top Field First
Compression mode : Lossy
Bits/(Pixel*Frame) : 0.868
Stream size : 959 MiB (94%)
Audio #1
ID : 128 (0x80)
Format : AC-3
Format/Info : Audio Coding 3
Mode extension : CM (complete main)
Duration : 14mn 57s
Bit rate mode : Constant
Bit rate : 192 Kbps
Channel(s) : 2 channels
Channel positions : Front: L R
Sampling rate : 48.0 KHz
Bit depth : 16 bits
Compression mode : Lossy
Video delay : -208ms
Stream size : 20.5 MiB (2%)
Audio #2
ID : 129 (0x81)
Format : AC-3
Format/Info : Audio Coding 3
Mode extension : CM (complete main)
Duration : 14mn 57s
Bit rate mode : Constant
Bit rate : 224 Kbps
Channel(s) : 2 channels
Channel positions : Front: L R
Sampling rate : 48.0 KHz
Bit depth : 16 bits
Compression mode : Lossy
Video delay : -240ms
Stream size : 24.0 MiB (2%)
Menu
General
Complete name : D:\Мои релизы\Staggered [DVD9]\VIDEO_TS\VTS_01_3.VOB
Format : MPEG-PS
File size : 1 024 MiB
Duration : 14mn 57s
Overall bit rate : 9 572 Kbps
Video
ID : 224 (0xE0)
Format : MPEG Video
Format version : Version 2
Format profile : Main@Main
Format settings, BVOP : Yes
Format settings, Matrix : Default
Format settings, GOP : M=3, N=13
Duration : 14mn 57s
Bit rate mode : Variable
Bit rate : 9 000 Kbps
Width : 720 pixels
Height : 576 pixels
Display aspect ratio : 4:3
Frame rate : 25.000 fps
Standard : PAL
Color space : YUV
Chroma subsampling : 4:2:0
Bit depth : 8 bits
Scan type : Interlaced
Scan order : Top Field First
Compression mode : Lossy
Bits/(Pixel*Frame) : 0.868
Stream size : 959 MiB (94%)
Audio #1
ID : 128 (0x80)
Format : AC-3
Format/Info : Audio Coding 3
Mode extension : CM (complete main)
Duration : 14mn 57s
Bit rate mode : Constant
Bit rate : 192 Kbps
Channel(s) : 2 channels
Channel positions : Front: L R
Sampling rate : 48.0 KHz
Bit depth : 16 bits
Compression mode : Lossy
Video delay : -352ms
Stream size : 20.5 MiB (2%)
Audio #2
ID : 129 (0x81)
Format : AC-3
Format/Info : Audio Coding 3
Mode extension : CM (complete main)
Duration : 14mn 57s
Bit rate mode : Constant
Bit rate : 224 Kbps
Channel(s) : 2 channels
Channel positions : Front: L R
Sampling rate : 48.0 KHz
Bit depth : 16 bits
Compression mode : Lossy
Video delay : -416ms
Stream size : 24.0 MiB (2%)
Menu
General
Complete name : D:\Мои релизы\Staggered [DVD9]\VIDEO_TS\VTS_01_4.VOB
Format : MPEG-PS
File size : 1 024 MiB
Duration : 14mn 57s
Overall bit rate : 9 573 Kbps
Video
ID : 224 (0xE0)
Format : MPEG Video
Format version : Version 2
Format profile : Main@Main
Format settings, BVOP : Yes
Format settings, Matrix : Default
Format settings, GOP : M=3, N=13
Duration : 14mn 56s
Bit rate mode : Variable
Bit rate : 9 000 Kbps
Width : 720 pixels
Height : 576 pixels
Display aspect ratio : 4:3
Frame rate : 25.000 fps
Standard : PAL
Color space : YUV
Chroma subsampling : 4:2:0
Bit depth : 8 bits
Scan type : Interlaced
Scan order : Top Field First
Compression mode : Lossy
Bits/(Pixel*Frame) : 0.868
Stream size : 959 MiB (94%)
Audio #1
ID : 128 (0x80)
Format : AC-3
Format/Info : Audio Coding 3
Mode extension : CM (complete main)
Duration : 14mn 57s
Bit rate mode : Constant
Bit rate : 192 Kbps
Channel(s) : 2 channels
Channel positions : Front: L R
Sampling rate : 48.0 KHz
Bit depth : 16 bits
Compression mode : Lossy
Video delay : -528ms
Stream size : 20.5 MiB (2%)
Audio #2
ID : 129 (0x81)
Format : AC-3
Format/Info : Audio Coding 3
Mode extension : CM (complete main)
Duration : 14mn 57s
Bit rate mode : Constant
Bit rate : 224 Kbps
Channel(s) : 2 channels
Channel positions : Front: L R
Sampling rate : 48.0 KHz
Bit depth : 16 bits
Compression mode : Lossy
Video delay : -528ms
Stream size : 24.0 MiB (2%)
Menu
General
Complete name : D:\Мои релизы\Staggered [DVD9]\VIDEO_TS\VTS_01_5.VOB
Format : MPEG-PS
File size : 1 024 MiB
Duration : 14mn 57s
Overall bit rate : 9 572 Kbps
Video
ID : 224 (0xE0)
Format : MPEG Video
Format version : Version 2
Format profile : Main@Main
Format settings, BVOP : Yes
Format settings, Matrix : Default
Format settings, GOP : M=3, N=13
Duration : 14mn 57s
Bit rate mode : Variable
Bit rate : 9 000 Kbps
Width : 720 pixels
Height : 576 pixels
Display aspect ratio : 4:3
Frame rate : 25.000 fps
Standard : PAL
Color space : YUV
Chroma subsampling : 4:2:0
Bit depth : 8 bits
Scan type : Interlaced
Scan order : Top Field First
Compression mode : Lossy
Bits/(Pixel*Frame) : 0.868
Stream size : 959 MiB (94%)
Audio #1
ID : 128 (0x80)
Format : AC-3
Format/Info : Audio Coding 3
Mode extension : CM (complete main)
Duration : 14mn 57s
Bit rate mode : Constant
Bit rate : 192 Kbps
Channel(s) : 2 channels
Channel positions : Front: L R
Sampling rate : 48.0 KHz
Bit depth : 16 bits
Compression mode : Lossy
Video delay : -216ms
Stream size : 20.5 MiB (2%)
Audio #2
ID : 129 (0x81)
Format : AC-3
Format/Info : Audio Coding 3
Mode extension : CM (complete main)
Duration : 14mn 57s
Bit rate mode : Constant
Bit rate : 224 Kbps
Channel(s) : 2 channels
Channel positions : Front: L R
Sampling rate : 48.0 KHz
Bit depth : 16 bits
Compression mode : Lossy
Video delay : -216ms
Stream size : 24.0 MiB (2%)
Menu
General
Complete name : D:\Мои релизы\Staggered [DVD9]\VIDEO_TS\VTS_01_6.VOB
Format : MPEG-PS
File size : 1 024 MiB
Duration : 14mn 57s
Overall bit rate : 9 572 Kbps
Video
ID : 224 (0xE0)
Format : MPEG Video
Format version : Version 2
Format profile : Main@Main
Format settings, BVOP : Yes
Format settings, Matrix : Default
Format settings, GOP : M=3, N=13
Duration : 14mn 57s
Bit rate mode : Variable
Bit rate : 9 000 Kbps
Width : 720 pixels
Height : 576 pixels
Display aspect ratio : 4:3
Frame rate : 25.000 fps
Standard : PAL
Color space : YUV
Chroma subsampling : 4:2:0
Bit depth : 8 bits
Scan type : Interlaced
Scan order : Top Field First
Compression mode : Lossy
Bits/(Pixel*Frame) : 0.868
Stream size : 959 MiB (94%)
Audio #1
ID : 128 (0x80)
Format : AC-3
Format/Info : Audio Coding 3
Mode extension : CM (complete main)
Duration : 14mn 57s
Bit rate mode : Constant
Bit rate : 192 Kbps
Channel(s) : 2 channels
Channel positions : Front: L R
Sampling rate : 48.0 KHz
Bit depth : 16 bits
Compression mode : Lossy
Video delay : -296ms
Stream size : 20.5 MiB (2%)
Audio #2
ID : 129 (0x81)
Format : AC-3
Format/Info : Audio Coding 3
Mode extension : CM (complete main)
Duration : 14mn 57s
Bit rate mode : Constant
Bit rate : 224 Kbps
Channel(s) : 2 channels
Channel positions : Front: L R
Sampling rate : 48.0 KHz
Bit depth : 16 bits
Compression mode : Lossy
Video delay : -328ms
Stream size : 24.0 MiB (2%)
Menu
General
Complete name : D:\Мои релизы\Staggered [DVD9]\VIDEO_TS\VTS_01_7.VOB
Format : MPEG-PS
File size : 375 MiB
Overall bit rate : 0
Video
ID : 224 (0xE0)
Format : MPEG Video
Format version : Version 2
Format profile : Main@Main
Format settings, BVOP : Yes
Format settings, Matrix : Default
Format settings, GOP : M=3, N=13
Bit rate mode : Variable
Nominal bit rate : 9 000 Kbps
Width : 720 pixels
Height : 576 pixels
Display aspect ratio : 4:3
Frame rate : 25.000 fps
Standard : PAL
Color space : YUV
Chroma subsampling : 4:2:0
Bit depth : 8 bits
Scan type : Interlaced
Scan order : Top Field First
Compression mode : Lossy
Bits/(Pixel*Frame) : 0.868
Audio #1
ID : 128 (0x80)
Format : AC-3
Format/Info : Audio Coding 3
Mode extension : CM (complete main)
Bit rate mode : Constant
Bit rate : 192 Kbps
Channel(s) : 2 channels
Channel positions : Front: L R
Sampling rate : 48.0 KHz
Bit depth : 16 bits
Compression mode : Lossy
Video delay : -440ms
Stream size : 403 ?iB
Audio #2
ID : 129 (0x81)
Format : AC-3
Format/Info : Audio Coding 3
Mode extension : CM (complete main)
Bit rate mode : Constant
Bit rate : 224 Kbps
Channel(s) : 2 channels
Channel positions : Front: L R
Sampling rate : 48.0 KHz
Bit depth : 16 bits
Compression mode : Lossy
Video delay : -504ms
Stream size : 470 ?iB
Text
ID : 32 (0x20)
Format : RLE
Format/Info : Run-length encoding
Menu

Скриншоты меню

Скриншоты

Скриншоты доп. материалов

[Profile]  [PM] 
Display posts:    
Reply to topic

Current time is: 14-Apr 23:04

All times are UTC + 2



You cannot post new topics in this forum
You cannot reply to topics in this forum
You cannot edit your posts in this forum
You cannot delete your posts in this forum
You cannot vote in polls in this forum
You cannot attach files in this forum
You cannot download files in this forum