Язык любви / Kärlekens språk 2000 (Андерс Леннберг / Anders Lennberg) [2004, Швеция, драма, эротика, DVD5] AVO (Антон Алексеев) + Original Swe

Reply to topic
 
Author
Message

Faust ®

Gender: Unknown

Longevity: 9 years 6 months

Posts: 14961

Reputation: 0 [+] [-]

Faust · Post 28-May-2014 00:25

[Quote] 

Язык любви / Kärlekens språk 2000
Страна: Швеция
Студия: Oak Hill Productions
Жанр: эротическая драма
Год выпуска: 2004
Продолжительность: 01:34:54
Перевод: Авторский (одноголосый закадровый) Антон Алексеев
Cубтитры: нет
Оригинальная аудиодорожка: шведский
Режиссер: Андерс Леннберг / Anders Lennberg
В ролях: Регина Лунд, Ян Мюбранд, Эмма Оберг, Хелена Линдблом, Берт-Оке Варг, Ким Андерсон, Темба Тайнтон, Катерина Януш, Мартин Хедман, Юлия Клингенер, Михаэль Казарнович, Саша Захариас
Описание: «Язык любви» - это красивое кино о любви и сексуальности вне зависимости от того, молодые ли это люди или уже пожившие. В нем показаны отношения между партнерами, как бы взятые из реальной жизни. Это кино действительно заставляет сопереживать его героям. По сюжету мы встречаем докторов, которые обсуждают и объясняют широкий спектр сексуальных тем весьма деликатным и доступным образом. В фильме много талантливых молодых актеров, которые, совершенно не комплексуя, играют в рискованных откровенных сценах, требующих максимального правдоподобия.
Бонусы: нет
Не рекомендуется к просмотру детям до 16 лет
Меню: статичное, неозвученное, на английском языке

Сэмпл: http://multi-up.com/962496
Тип релиза: DVD5
Контейнер: DVD-Video
Видео: PAL 16:9 (720x576(0.582)) MPEG Video, 25,000 кадр/сек, 6032 Кбит/сек
Аудио: Russian (Dolby AC3, 2ch) 192 Кбит/сек, 48,0 КГц
Аудио 2: Swedish (Dolby AC3, 2ch) 192 Кбит/сек, 48,0 КГц

Доп. информация

Издание artvideodvd

DVDInfo

Title:
Size: 4.36 Gb ( 4 570 918 KBytes ) - DVD-5
Enabled regions: 1, 2, 3, 4, 5, 6, 7, 8
VTS_01 :
Play Length: 01:34:54
Video: PAL 16:9 (720x576) VBR, Auto Letterboxed
Audio:
Russian (Dolby AC3, 2 ch)
Svenska (Dolby AC3, 2 ch)
Subtitles:
English
VTS_02 :
Play Length: 00:00:24
Video: PAL 4:3 (720x576) VBR
Audio:
Russian (Dolby AC3, 2 ch)
Russian (Dolby AC3, 2 ch)
Menu Video:
PAL 4:3 (720x576) VBR
Menu Subtitles:
Not specified
Menu English Language Unit :
Root Menu

MediaInfo

General
Complete name : D:\odds\Язык любви\VIDEO_TS\VTS_01_1.VOB
Format : MPEG-PS
File size : 1 024 MiB
Duration : 21mn 52s
Overall bit rate : 6 547 Kbps
Video
ID : 224 (0xE0)
Format : MPEG Video
Format version : Version 2
Format profile : Main@Main
Format settings, BVOP : Yes
Format settings, Matrix : Default
Format settings, GOP : M=3, N=13
Duration : 21mn 52s
Bit rate mode : Variable
Bit rate : 6 032 Kbps
Nominal bit rate : 9 000 Kbps
Width : 720 pixels
Height : 576 pixels
Display aspect ratio : 2.35:1
Frame rate : 25.000 fps
Standard : PAL
Color space : YUV
Chroma subsampling : 4:2:0
Bit depth : 8 bits
Scan type : Interlaced
Scan order : Top Field First
Bits/(Pixel*Frame) : 0.582
Stream size : 944 MiB (92%)
Audio #1
ID : 128 (0x80)
Format : AC-3
Format/Info : Audio Coding 3
Mode extension : CM (complete main)
Duration : 21mn 52s
Bit rate mode : Constant
Bit rate : 192 Kbps
Channel(s) : 2 channels
Channel positions : Front: L R
Sampling rate : 48.0 KHz
Stream size : 30.0 MiB (3%)
Audio #2
ID : 129 (0x81)
Format : AC-3
Format/Info : Audio Coding 3
Mode extension : CM (complete main)
Duration : 21mn 52s
Bit rate mode : Constant
Bit rate : 192 Kbps
Channel(s) : 2 channels
Channel positions : Front: L R
Sampling rate : 48.0 KHz
Stream size : 30.0 MiB (3%)
Text #1
ID : 33 (0x21)
Format : RLE
Format/Info : Run-length encoding
Text #2
ID : 34 (0x22)
Format : RLE
Format/Info : Run-length encoding
Menu

Скриншоты меню

Скриншоты

Постеры

[Profile]  [PM] 
Display posts:    
Reply to topic

Current time is: 14-Apr 22:17

All times are UTC + 2



You cannot post new topics in this forum
You cannot reply to topics in this forum
You cannot edit your posts in this forum
You cannot delete your posts in this forum
You cannot vote in polls in this forum
You cannot attach files in this forum
You cannot download files in this forum