Линия паса / Линия прохода / Linha de Passe (Уолтер Саллес / Walter Salles, Даниэла Томас / Daniela Thomas) [2008, Бразилия, Драма, спорт, DVD9 (custom)] VO + Original (Prt) + Sub (Prt, Esp, Eng)

Reply to topic
 
Author
Message

Faust ®

Gender: Unknown

Longevity: 9 years 6 months

Posts: 14961

Reputation: 0 [+] [-]

Faust · Post 13-Jun-2014 00:20

[Quote] 

Линия паса / Линия прохода / Linha de Passe- Страна: Бразилия
Студия: Media Rights Capital, Pathé Pictures International
Жанр: Драма, спорт
Год выпуска: 2008
Продолжительность: 01:53:41-Перевод: Одноголосый закадровый [отсюда спасибо CatZ_WILL_BE_BACK ]
Cубтитры: португальские, испанские, английские
Оригинальная аудиодорожка: португальский-Режиссер: Уолтер Саллес / Walter Salles, Даниэла Томас / Daniela Thomas-В ролях: Сандра Корвелони, Жоан Балдассерини, Винициус де Оливейра, Жозе Жеральду Родригеш, Кайке, Жезуш Сантуш, Роберто Ауди, Дениза Вейнберг, Ана Луиза Гарритано, Серджио Мастропаскуа, Рената Новаес-Описание: Четыре брата из очень бедной семьи борются за место под солнцем... пытаются осуществить то, о чём всегда мечтали, стать футболистами. Это не просто фильм, это урок о моральных и этических дилеммах, с которыми ежедневно сталкиваются молодые люди бразильских окраин. Под кажущейся простотой и фрагментарной структурой прячется фильм отличный от Дневников мотоциклиста и Бразильского Централа, спродюсированных всё тем же Уолтером Сэллесом.-Доп. информация:
- Русская звуковая дорожка включается с пульта плеера!
- за исходный DVD9 спасибо edus67

Бонусы: дополнительные материалы включают трейлер, фильм о съемках, информацию об актерах - все на португальском языке
Меню: есть, язык португальский, анимированное, озвученное-Sample | IMDB | КиноПоиск-Тип релиза: DVD9 (Custom)
Контейнер: DVD-Video-Видео: NTSC 4:3 (720x480) VBR
Аудио 1: AC3, 3/2+LFE ch, 224Kbps, Delay 0 mSec [Original_Portuguese]
Аудио 2: AC3, 2/0 ch, 192Kbps, Delay 0 mSec [Original_Portuguese]
Аудио 3: AC3, 2/0 ch, 192Kbps, Delay 0 mSec [Russian_VO]-Релиз группы: -

Используемое ПО

1. BeLight - mp3 - wav;
2. Adobe Audition - синхронизация;
3. Minnetonka Audio Software - wav - ac3;

4. PgcDemux - разборка оригинального DVD;
5. MuxMan - сборка DVD;
6. DVDReMake Pro - финальный проект.

DVDInfo

Title:
Size: 6.95 Gb ( 7 290 776 KBytes ) - DVD-9
Enabled regions: 1, 2, 3, 4, 5, 6, 7, 8
VTS_01 :
Play Length: 01:53:41
Video: NTSC 4:3 (720x480) VBR
Audio:
Portugues (Dolby AC3, 6 ch)
Portugues (Dolby AC3, 2 ch)
Russian (Dolby AC3, 2 ch)
Subtitles:
Portugues
Espanol
English
VTS_02 :
Play Length: 00:00:03
Video: NTSC 4:3 (720x480) VBR
VTS_03 :
Play Length: 00:00:03
Video: NTSC 4:3 (720x480) VBR
VTS_04 :
Play Length: 00:02:33+00:06:27+00:02:26+00:03:20+00:01:36+00:01:42+00:02:20+00:17:51
Video: NTSC 4:3 (720x480) VBR
Audio:
Portugues (Dolby AC3, 2 ch)
Portugues (Dolby AC3, 2 ch)
Subtitles:
Portugues
Espanol
English
Menu Video:
NTSC 4:3 (720x480) VBR
Menu Audio:
Not specified (Dolby AC3, 2 ch)
Menu Subtitles:
Not specified
Menu Portugues Language Unit :
Root Menu
Subpicture Menu
Audio Menu
Chapter (PTT) Menu

MediaInfo

General
Complete name : D:\Мои релизы\Linha de Passe [DVD9]\VIDEO_TS\VIDEO_TS.BUP
Format : DVD Video
Format profile : Menu
File size : 16.0 KiB
Video
ID : 224 (0xE0)
Format : MPEG Video
Format version : Version 2
Bit rate mode : Variable
Width : 720 pixels
Height : 480 pixels
Display aspect ratio : 4:3
Frame rate : 29.970 fps
Standard : NTSC
Compression mode : Lossy
Audio
Format : AC-3
Format/Info : Audio Coding 3
Channel(s) : 2 channels
Sampling rate : 48.0 KHz
Compression mode : Lossy
Text
Format : RLE
Format/Info : Run-length encoding
Bit depth : 2 bits
General
Complete name : D:\Мои релизы\Linha de Passe [DVD9]\VIDEO_TS\VIDEO_TS.IFO
Format : DVD Video
Format profile : Menu
File size : 16.0 KiB
Video
ID : 224 (0xE0)
Format : MPEG Video
Format version : Version 2
Bit rate mode : Variable
Width : 720 pixels
Height : 480 pixels
Display aspect ratio : 4:3
Frame rate : 29.970 fps
Standard : NTSC
Compression mode : Lossy
Audio
Format : AC-3
Format/Info : Audio Coding 3
Channel(s) : 2 channels
Sampling rate : 48.0 KHz
Compression mode : Lossy
Text
Format : RLE
Format/Info : Run-length encoding
Bit depth : 2 bits
General
Complete name : D:\Мои релизы\Linha de Passe [DVD9]\VIDEO_TS\VIDEO_TS.VOB
Format : MPEG-PS
File size : 4.43 MiB
Duration : 2s 944ms
Overall bit rate : 12.6 Mbps
Video
ID : 224 (0xE0)
Format : MPEG Video
Format version : Version 2
Format profile : Main@Main
Format settings, BVOP : Yes
Format settings, Matrix : Default
Duration : 2s 936ms
Bit rate mode : Variable
Bit rate : 12.2 Mbps
Width : 720 pixels
Height : 480 pixels
Display aspect ratio : 16:9
Frame rate : 29.970 fps
Standard : NTSC
Color space : YUV
Chroma subsampling : 4:2:0
Bit depth : 8 bits
Compression mode : Lossy
Bits/(Pixel*Frame) : 1.176
Stream size : 4.26 MiB (96%)
Audio
ID : 128 (0x80)
Format : AC-3
Format/Info : Audio Coding 3
Mode extension : CM (complete main)
Duration : 2s 944ms
Bit rate mode : Constant
Bit rate : 192 Kbps
Channel(s) : 2 channels
Channel positions : Front: L R
Sampling rate : 48.0 KHz
Bit depth : 16 bits
Compression mode : Lossy
Stream size : 69.0 KiB (2%)
Menu
General
Complete name : D:\Мои релизы\Linha de Passe [DVD9]\VIDEO_TS\VTS_01_0.BUP
Format : DVD Video
Format profile : Program
File size : 86.0 KiB
Duration : 1h 53mn
Overall bit rate : 103 bps
Video
ID : 224 (0xE0)
Format : MPEG Video
Format version : Version 2
Duration : 1h 53mn
Bit rate mode : Variable
Width : 720 pixels
Height : 480 pixels
Display aspect ratio : 4:3
Frame rate : 29.970 fps
Standard : NTSC
Compression mode : Lossy
Audio #1
ID : 128 (0x80)
Format : AC-3
Format/Info : Audio Coding 3
Duration : 1h 53mn
Channel(s) : 6 channels
Sampling rate : 48.0 KHz
Compression mode : Lossy
Language : Portuguese
Audio #2
ID : 129 (0x81)
Format : AC-3
Format/Info : Audio Coding 3
Duration : 1h 53mn
Channel(s) : 2 channels
Sampling rate : 48.0 KHz
Compression mode : Lossy
Language : Portuguese
Audio #3
ID : 130 (0x82)
Format : AC-3
Format/Info : Audio Coding 3
Duration : 1h 53mn
Channel(s) : 2 channels
Sampling rate : 48.0 KHz
Compression mode : Lossy
Language : Russian
Text #1
ID : 32 (0x20)
Format : RLE
Format/Info : Run-length encoding
Bit depth : 2 bits
Language : Portuguese
Text #2
ID : 32 (0x20)
Format : RLE
Format/Info : Run-length encoding
Bit depth : 2 bits
Language : Spanish
Text #3
ID : 32 (0x20)
Format : RLE
Format/Info : Run-length encoding
Bit depth : 2 bits
Language : English
Menu
Duration : 1h 53mn
00:00:00.000 : Chapter 1
00:08:08.700 : Chapter 2
00:19:52.666 : Chapter 3
00:29:30.966 : Chapter 4
00:41:10.032 : Chapter 5
00:51:00.698 : Chapter 6
00:59:46.131 : Chapter 7
01:10:06.964 : Chapter 8
01:17:51.630 : Chapter 9
01:27:12.763 : Chapter 10
01:37:24.596 : Chapter 11
01:49:24.596 : Chapter 12
01:53:41.162 : Chapter 13
List (Audio) : 0 / 1 / 2
List (Subtitles 4/3) : 0 / 1 / 2
List (Subtitles Wide) : 0 / 0 / 0
List (Subtitles Letterbox) : 0 / 0 / 0
List (Subtitles Pan&Scan) : 0 / 0 / 0
General
Complete name : D:\Мои релизы\Linha de Passe [DVD9]\VIDEO_TS\VTS_01_0.IFO
Format : DVD Video
Format profile : Program
File size : 86.0 KiB
Duration : 1h 53mn
Overall bit rate : 103 bps
Video
ID : 224 (0xE0)
Format : MPEG Video
Format version : Version 2
Duration : 1h 53mn
Bit rate mode : Variable
Width : 720 pixels
Height : 480 pixels
Display aspect ratio : 4:3
Frame rate : 29.970 fps
Standard : NTSC
Compression mode : Lossy
Audio #1
ID : 128 (0x80)
Format : AC-3
Format/Info : Audio Coding 3
Duration : 1h 53mn
Channel(s) : 6 channels
Sampling rate : 48.0 KHz
Compression mode : Lossy
Language : Portuguese
Audio #2
ID : 129 (0x81)
Format : AC-3
Format/Info : Audio Coding 3
Duration : 1h 53mn
Channel(s) : 2 channels
Sampling rate : 48.0 KHz
Compression mode : Lossy
Language : Portuguese
Audio #3
ID : 130 (0x82)
Format : AC-3
Format/Info : Audio Coding 3
Duration : 1h 53mn
Channel(s) : 2 channels
Sampling rate : 48.0 KHz
Compression mode : Lossy
Language : Russian
Text #1
ID : 32 (0x20)
Format : RLE
Format/Info : Run-length encoding
Bit depth : 2 bits
Language : Portuguese
Text #2
ID : 32 (0x20)
Format : RLE
Format/Info : Run-length encoding
Bit depth : 2 bits
Language : Spanish
Text #3
ID : 32 (0x20)
Format : RLE
Format/Info : Run-length encoding
Bit depth : 2 bits
Language : English
Menu
Duration : 1h 53mn
00:00:00.000 : Chapter 1
00:08:08.700 : Chapter 2
00:19:52.666 : Chapter 3
00:29:30.966 : Chapter 4
00:41:10.032 : Chapter 5
00:51:00.698 : Chapter 6
00:59:46.131 : Chapter 7
01:10:06.964 : Chapter 8
01:17:51.630 : Chapter 9
01:27:12.763 : Chapter 10
01:37:24.596 : Chapter 11
01:49:24.596 : Chapter 12
01:53:41.162 : Chapter 13
List (Audio) : 0 / 1 / 2
List (Subtitles 4/3) : 0 / 1 / 2
List (Subtitles Wide) : 0 / 0 / 0
List (Subtitles Letterbox) : 0 / 0 / 0
List (Subtitles Pan&Scan) : 0 / 0 / 0
General
Complete name : D:\Мои релизы\Linha de Passe [DVD9]\VIDEO_TS\VTS_01_0.VOB
Format : MPEG-PS
File size : 239 MiB
Duration : 1mn 0s
Overall bit rate : 33.4 Mbps
Video
ID : 224 (0xE0)
Format : MPEG Video
Format version : Version 2
Format profile : Main@Main
Format settings, BVOP : Yes
Format settings, Matrix : Default
Duration : 59s 993ms
Bit rate mode : Variable
Bit rate : 32.6 Mbps
Nominal bit rate : 6 000 Kbps
Width : 720 pixels
Height : 480 pixels
Display aspect ratio : 4:3
Frame rate : 29.970 fps
Standard : NTSC
Color space : YUV
Chroma subsampling : 4:2:0
Bit depth : 8 bits
Scan type : Interlaced
Scan order : Top Field First
Compression mode : Lossy
Bits/(Pixel*Frame) : 3.144
Stream size : 233 MiB (97%)
Audio
ID : 128 (0x80)
Format : AC-3
Format/Info : Audio Coding 3
Mode extension : CM (complete main)
Duration : 1mn 0s
Bit rate mode : Constant
Bit rate : 192 Kbps
Channel(s) : 2 channels
Channel positions : Front: L R
Sampling rate : 48.0 KHz
Bit depth : 16 bits
Compression mode : Lossy
Stream size : 1.37 MiB (1%)
Text
ID : 32 (0x20)
Format : RLE
Format/Info : Run-length encoding
Menu
General
Complete name : D:\Мои релизы\Linha de Passe [DVD9]\VIDEO_TS\VTS_01_1.VOB
Format : MPEG-PS
File size : 1 024 MiB
Duration : 19mn 55s
Overall bit rate : 7 182 Kbps
Video
ID : 224 (0xE0)
Format : MPEG Video
Format version : Version 2
Format profile : Main@Main
Format settings, BVOP : Yes
Format settings, Matrix : Default
Format settings, GOP : M=3, N=15
Duration : 19mn 55s
Bit rate mode : Variable
Bit rate : 6 431 Kbps
Nominal bit rate : 8 000 Kbps
Width : 720 pixels
Height : 480 pixels
Display aspect ratio : 4:3
Frame rate : 29.970 fps
Standard : NTSC
Color space : YUV
Chroma subsampling : 4:2:0
Bit depth : 8 bits
Scan type : Interlaced
Scan order : Top Field First
Compression mode : Lossy
Bits/(Pixel*Frame) : 0.621
Stream size : 917 MiB (90%)
Audio #1
ID : 128 (0x80)
Format : AC-3
Format/Info : Audio Coding 3
Mode extension : CM (complete main)
Duration : 19mn 55s
Bit rate mode : Constant
Bit rate : 224 Kbps
Channel(s) : 6 channels
Channel positions : Front: L C R, Side: L R, LFE
Sampling rate : 48.0 KHz
Bit depth : 16 bits
Compression mode : Lossy
Stream size : 31.9 MiB (3%)
Audio #2
ID : 129 (0x81)
Format : AC-3
Format/Info : Audio Coding 3
Mode extension : CM (complete main)
Duration : 19mn 55s
Bit rate mode : Constant
Bit rate : 192 Kbps
Channel(s) : 2 channels
Channel positions : Front: L R
Sampling rate : 48.0 KHz
Bit depth : 16 bits
Compression mode : Lossy
Stream size : 27.4 MiB (3%)
Audio #3
ID : 130 (0x82)
Format : AC-3
Format/Info : Audio Coding 3
Mode extension : CM (complete main)
Duration : 19mn 55s
Bit rate mode : Constant
Bit rate : 192 Kbps
Channel(s) : 2 channels
Channel positions : Front: L R
Sampling rate : 48.0 KHz
Bit depth : 16 bits
Compression mode : Lossy
Stream size : 27.4 MiB (3%)
Text #1
ID : 32 (0x20)
Format : RLE
Format/Info : Run-length encoding
Text #2
ID : 33 (0x21)
Format : RLE
Format/Info : Run-length encoding
Text #3
ID : 34 (0x22)
Format : RLE
Format/Info : Run-length encoding
Menu
General
Complete name : D:\Мои релизы\Linha de Passe [DVD9]\VIDEO_TS\VTS_01_2.VOB
Format : MPEG-PS
File size : 1 024 MiB
Duration : 19mn 31s
Overall bit rate : 7 330 Kbps
Video
ID : 224 (0xE0)
Format : MPEG Video
Format version : Version 2
Format profile : Main@Main
Format settings, BVOP : Yes
Format settings, Matrix : Default
Format settings, GOP : M=3, N=15
Duration : 19mn 31s
Bit rate mode : Variable
Bit rate : 6 576 Kbps
Nominal bit rate : 8 000 Kbps
Width : 720 pixels
Height : 480 pixels
Display aspect ratio : 4:3
Frame rate : 29.970 fps
Standard : NTSC
Color space : YUV
Chroma subsampling : 4:2:0
Bit depth : 8 bits
Scan type : Interlaced
Scan order : Top Field First
Compression mode : Lossy
Bits/(Pixel*Frame) : 0.635
Stream size : 918 MiB (90%)
Audio #1
ID : 128 (0x80)
Format : AC-3
Format/Info : Audio Coding 3
Mode extension : CM (complete main)
Duration : 19mn 31s
Bit rate mode : Constant
Bit rate : 224 Kbps
Channel(s) : 6 channels
Channel positions : Front: L C R, Side: L R, LFE
Sampling rate : 48.0 KHz
Bit depth : 16 bits
Compression mode : Lossy
Video delay : -489ms
Stream size : 31.3 MiB (3%)
Audio #2
ID : 129 (0x81)
Format : AC-3
Format/Info : Audio Coding 3
Mode extension : CM (complete main)
Duration : 19mn 31s
Bit rate mode : Constant
Bit rate : 192 Kbps
Channel(s) : 2 channels
Channel positions : Front: L R
Sampling rate : 48.0 KHz
Bit depth : 16 bits
Compression mode : Lossy
Video delay : -521ms
Stream size : 26.8 MiB (3%)
Audio #3
ID : 130 (0x82)
Format : AC-3
Format/Info : Audio Coding 3
Mode extension : CM (complete main)
Duration : 19mn 31s
Bit rate mode : Constant
Bit rate : 192 Kbps
Channel(s) : 2 channels
Channel positions : Front: L R
Sampling rate : 48.0 KHz
Bit depth : 16 bits
Compression mode : Lossy
Video delay : -521ms
Stream size : 26.8 MiB (3%)
Menu
General
Complete name : D:\Мои релизы\Linha de Passe [DVD9]\VIDEO_TS\VTS_01_3.VOB
Format : MPEG-PS
File size : 1 024 MiB
Duration : 19mn 44s
Overall bit rate : 7 252 Kbps
Video
ID : 224 (0xE0)
Format : MPEG Video
Format version : Version 2
Format profile : Main@Main
Format settings, BVOP : Yes
Format settings, Matrix : Default
Format settings, GOP : M=3, N=15
Duration : 19mn 44s
Bit rate mode : Variable
Bit rate : 6 500 Kbps
Nominal bit rate : 8 000 Kbps
Width : 720 pixels
Height : 480 pixels
Display aspect ratio : 4:3
Frame rate : 29.970 fps
Standard : NTSC
Color space : YUV
Chroma subsampling : 4:2:0
Bit depth : 8 bits
Scan type : Interlaced
Scan order : Top Field First
Compression mode : Lossy
Bits/(Pixel*Frame) : 0.628
Stream size : 917 MiB (90%)
Audio #1
ID : 128 (0x80)
Format : AC-3
Format/Info : Audio Coding 3
Mode extension : CM (complete main)
Duration : 19mn 44s
Bit rate mode : Constant
Bit rate : 224 Kbps
Channel(s) : 6 channels
Channel positions : Front: L C R, Side: L R, LFE
Sampling rate : 48.0 KHz
Bit depth : 16 bits
Compression mode : Lossy
Video delay : -517ms
Stream size : 31.6 MiB (3%)
Audio #2
ID : 129 (0x81)
Format : AC-3
Format/Info : Audio Coding 3
Mode extension : CM (complete main)
Duration : 19mn 44s
Bit rate mode : Constant
Bit rate : 192 Kbps
Channel(s) : 2 channels
Channel positions : Front: L R
Sampling rate : 48.0 KHz
Bit depth : 16 bits
Compression mode : Lossy
Video delay : -453ms
Stream size : 27.1 MiB (3%)
Audio #3
ID : 130 (0x82)
Format : AC-3
Format/Info : Audio Coding 3
Mode extension : CM (complete main)
Duration : 19mn 44s
Bit rate mode : Constant
Bit rate : 192 Kbps
Channel(s) : 2 channels
Channel positions : Front: L R
Sampling rate : 48.0 KHz
Bit depth : 16 bits
Compression mode : Lossy
Video delay : -453ms
Stream size : 27.1 MiB (3%)
Text #1
ID : 32 (0x20)
Format : RLE
Format/Info : Run-length encoding
Text #2
ID : 33 (0x21)
Format : RLE
Format/Info : Run-length encoding
Text #3
ID : 34 (0x22)
Format : RLE
Format/Info : Run-length encoding
Menu
General
Complete name : D:\Мои релизы\Linha de Passe [DVD9]\VIDEO_TS\VTS_01_4.VOB
Format : MPEG-PS
File size : 1 024 MiB
Duration : 19mn 44s
Overall bit rate : 7 254 Kbps
Video
ID : 224 (0xE0)
Format : MPEG Video
Format version : Version 2
Format profile : Main@Main
Format settings, BVOP : Yes
Format settings, Matrix : Default
Format settings, GOP : M=3, N=15
Duration : 19mn 43s
Bit rate mode : Variable
Bit rate : 6 501 Kbps
Nominal bit rate : 8 000 Kbps
Width : 720 pixels
Height : 480 pixels
Display aspect ratio : 4:3
Frame rate : 29.970 fps
Standard : NTSC
Color space : YUV
Chroma subsampling : 4:2:0
Bit depth : 8 bits
Scan type : Interlaced
Scan order : Top Field First
Compression mode : Lossy
Bits/(Pixel*Frame) : 0.628
Stream size : 917 MiB (90%)
Audio #1
ID : 128 (0x80)
Format : AC-3
Format/Info : Audio Coding 3
Mode extension : CM (complete main)
Duration : 19mn 44s
Bit rate mode : Constant
Bit rate : 224 Kbps
Channel(s) : 6 channels
Channel positions : Front: L C R, Side: L R, LFE
Sampling rate : 48.0 KHz
Bit depth : 16 bits
Compression mode : Lossy
Video delay : -618ms
Stream size : 31.6 MiB (3%)
Audio #2
ID : 129 (0x81)
Format : AC-3
Format/Info : Audio Coding 3
Mode extension : CM (complete main)
Duration : 19mn 44s
Bit rate mode : Constant
Bit rate : 192 Kbps
Channel(s) : 2 channels
Channel positions : Front: L R
Sampling rate : 48.0 KHz
Bit depth : 16 bits
Compression mode : Lossy
Video delay : -650ms
Stream size : 27.1 MiB (3%)
Audio #3
ID : 130 (0x82)
Format : AC-3
Format/Info : Audio Coding 3
Mode extension : CM (complete main)
Duration : 19mn 44s
Bit rate mode : Constant
Bit rate : 192 Kbps
Channel(s) : 2 channels
Channel positions : Front: L R
Sampling rate : 48.0 KHz
Bit depth : 16 bits
Compression mode : Lossy
Video delay : -650ms
Stream size : 27.1 MiB (3%)
Text
ID : 33 (0x21)
Format : RLE
Format/Info : Run-length encoding
Video delay : 1s 869ms
Menu
General
Complete name : D:\Мои релизы\Linha de Passe [DVD9]\VIDEO_TS\VTS_01_5.VOB
Format : MPEG-PS
File size : 1 024 MiB
Duration : 19mn 44s
Overall bit rate : 7 252 Kbps
Video
ID : 224 (0xE0)
Format : MPEG Video
Format version : Version 2
Format profile : Main@Main
Format settings, BVOP : Yes
Format settings, Matrix : Default
Format settings, GOP : M=3, N=15
Duration : 19mn 43s
Bit rate mode : Variable
Bit rate : 6 500 Kbps
Nominal bit rate : 8 000 Kbps
Width : 720 pixels
Height : 480 pixels
Display aspect ratio : 4:3
Frame rate : 29.970 fps
Standard : NTSC
Color space : YUV
Chroma subsampling : 4:2:0
Bit depth : 8 bits
Scan type : Interlaced
Scan order : Top Field First
Compression mode : Lossy
Bits/(Pixel*Frame) : 0.628
Stream size : 917 MiB (90%)
Audio #1
ID : 128 (0x80)
Format : AC-3
Format/Info : Audio Coding 3
Mode extension : CM (complete main)
Duration : 19mn 44s
Bit rate mode : Constant
Bit rate : 224 Kbps
Channel(s) : 6 channels
Channel positions : Front: L C R, Side: L R, LFE
Sampling rate : 48.0 KHz
Bit depth : 16 bits
Compression mode : Lossy
Video delay : -677ms
Stream size : 31.6 MiB (3%)
Audio #2
ID : 129 (0x81)
Format : AC-3
Format/Info : Audio Coding 3
Mode extension : CM (complete main)
Duration : 19mn 44s
Bit rate mode : Constant
Bit rate : 192 Kbps
Channel(s) : 2 channels
Channel positions : Front: L R
Sampling rate : 48.0 KHz
Bit depth : 16 bits
Compression mode : Lossy
Video delay : -677ms
Stream size : 27.1 MiB (3%)
Audio #3
ID : 130 (0x82)
Format : AC-3
Format/Info : Audio Coding 3
Mode extension : CM (complete main)
Duration : 19mn 44s
Bit rate mode : Constant
Bit rate : 192 Kbps
Channel(s) : 2 channels
Channel positions : Front: L R
Sampling rate : 48.0 KHz
Bit depth : 16 bits
Compression mode : Lossy
Video delay : -677ms
Stream size : 27.1 MiB (3%)
Text #1
ID : 32 (0x20)
Format : RLE
Format/Info : Run-length encoding
Duration : 19mn 40s
Video delay : 1s 868ms
Text #2
ID : 34 (0x22)
Format : RLE
Format/Info : Run-length encoding
Duration : 19mn 40s
Video delay : 1s 868ms
Text #3
ID : 33 (0x21)
Format : RLE
Format/Info : Run-length encoding
Menu
General
Complete name : D:\Мои релизы\Linha de Passe [DVD9]\VIDEO_TS\VTS_01_6.VOB
Format : MPEG-PS
File size : 774 MiB
Duration : 15mn 7s
Overall bit rate : 7 156 Kbps
Video
ID : 224 (0xE0)
Format : MPEG Video
Format version : Version 2
Format profile : Main@Main
Format settings, BVOP : Yes
Format settings, Matrix : Default
Format settings, GOP : M=3, N=15
Duration : 15mn 6s
Bit rate mode : Variable
Bit rate : 6 405 Kbps
Nominal bit rate : 8 000 Kbps
Width : 720 pixels
Height : 480 pixels
Display aspect ratio : 4:3
Frame rate : 29.970 fps
Standard : NTSC
Color space : YUV
Chroma subsampling : 4:2:0
Bit depth : 8 bits
Scan type : Interlaced
Scan order : Top Field First
Compression mode : Lossy
Bits/(Pixel*Frame) : 0.618
Stream size : 692 MiB (89%)
Audio #1
ID : 128 (0x80)
Format : AC-3
Format/Info : Audio Coding 3
Mode extension : CM (complete main)
Duration : 15mn 7s
Bit rate mode : Constant
Bit rate : 224 Kbps
Channel(s) : 6 channels
Channel positions : Front: L C R, Side: L R, LFE
Sampling rate : 48.0 KHz
Bit depth : 16 bits
Compression mode : Lossy
Video delay : -578ms
Stream size : 24.2 MiB (3%)
Audio #2
ID : 129 (0x81)
Format : AC-3
Format/Info : Audio Coding 3
Mode extension : CM (complete main)
Duration : 15mn 7s
Bit rate mode : Constant
Bit rate : 192 Kbps
Channel(s) : 2 channels
Channel positions : Front: L R
Sampling rate : 48.0 KHz
Bit depth : 16 bits
Compression mode : Lossy
Video delay : -514ms
Stream size : 20.8 MiB (3%)
Audio #3
ID : 130 (0x82)
Format : AC-3
Format/Info : Audio Coding 3
Mode extension : CM (complete main)
Duration : 15mn 7s
Bit rate mode : Constant
Bit rate : 192 Kbps
Channel(s) : 2 channels
Channel positions : Front: L R
Sampling rate : 48.0 KHz
Bit depth : 16 bits
Compression mode : Lossy
Video delay : -514ms
Stream size : 20.8 MiB (3%)
Text #1
ID : 32 (0x20)
Format : RLE
Format/Info : Run-length encoding
Duration : 15mn 3s
Video delay : -267ms
Text #2
ID : 33 (0x21)
Format : RLE
Format/Info : Run-length encoding
Duration : 15mn 1s
Video delay : -267ms
Text #3
ID : 34 (0x22)
Format : RLE
Format/Info : Run-length encoding
Duration : 15mn 3s
Video delay : -267ms
Menu
General
Complete name : D:\Мои релизы\Linha de Passe [DVD9]\VIDEO_TS\VTS_02_0.BUP
Format : DVD Video
Format profile : Program
File size : 18.0 KiB
Duration : 3s 0ms
Overall bit rate : 49.2 Kbps
Video
ID : 224 (0xE0)
Format : MPEG Video
Format version : Version 2
Duration : 3s 3ms
Bit rate mode : Variable
Bit rate : 40.3 Kbps
Width : 720 pixels
Height : 480 pixels
Display aspect ratio : 4:3
Frame rate : 29.970 fps
Standard : NTSC
Compression mode : Lossy
Bits/(Pixel*Frame) : 0.004
Stream size : 14.8 KiB (82%)
Menu
Duration : 3s 0ms
00:00:00.000 : Chapter 1
General
Complete name : D:\Мои релизы\Linha de Passe [DVD9]\VIDEO_TS\VTS_02_0.IFO
Format : DVD Video
Format profile : Program
File size : 18.0 KiB
Duration : 3s 0ms
Overall bit rate : 49.2 Kbps
Video
ID : 224 (0xE0)
Format : MPEG Video
Format version : Version 2
Duration : 3s 3ms
Bit rate mode : Variable
Bit rate : 40.3 Kbps
Width : 720 pixels
Height : 480 pixels
Display aspect ratio : 4:3
Frame rate : 29.970 fps
Standard : NTSC
Compression mode : Lossy
Bits/(Pixel*Frame) : 0.004
Stream size : 14.8 KiB (82%)
Menu
Duration : 3s 0ms
00:00:00.000 : Chapter 1
General
Complete name : D:\Мои релизы\Linha de Passe [DVD9]\VIDEO_TS\VTS_02_0.VOB
Format : MPEG-PS
File size : 20.0 KiB
Duration : 33ms
Overall bit rate : 4 965 Kbps
Video
ID : 224 (0xE0)
Format : MPEG Video
Format version : Version 2
Format profile : Main@Main
Format settings, BVOP : No
Format settings, Matrix : Default
Format settings, GOP : N=1
Duration : 33ms
Bit rate mode : Variable
Bit rate : 4 587 Kbps
Width : 720 pixels
Height : 480 pixels
Display aspect ratio : 16:9
Frame rate : 29.970 fps
Standard : NTSC
Color space : YUV
Chroma subsampling : 4:2:0
Bit depth : 8 bits
Scan type : Progressive
Scan order : Top Field First
Compression mode : Lossy
Bits/(Pixel*Frame) : 0.443
Stream size : 18.5 KiB (92%)
Menu
General
Complete name : D:\Мои релизы\Linha de Passe [DVD9]\VIDEO_TS\VTS_02_1.VOB
Format : MPEG-PS
File size : 20.0 KiB
Duration : 33ms
Overall bit rate : 4 965 Kbps
Video
ID : 224 (0xE0)
Format : MPEG Video
Format version : Version 2
Format profile : Main@Main
Format settings, BVOP : No
Format settings, Matrix : Default
Duration : 33ms
Bit rate mode : Variable
Bit rate : 4 587 Kbps
Width : 720 pixels
Height : 480 pixels
Display aspect ratio : 4:3
Frame rate : 29.970 fps
Standard : NTSC
Color space : YUV
Chroma subsampling : 4:2:0
Bit depth : 8 bits
Scan type : Progressive
Scan order : Top Field First
Compression mode : Lossy
Bits/(Pixel*Frame) : 0.443
Stream size : 18.5 KiB (92%)
Menu
General
Complete name : D:\Мои релизы\Linha de Passe [DVD9]\VIDEO_TS\VTS_03_0.BUP
Format : DVD Video
Format profile : Program
File size : 14.0 KiB
Duration : 3s 0ms
Overall bit rate : 38.2 Kbps
Video
ID : 224 (0xE0)
Format : MPEG Video
Format version : Version 2
Duration : 3s 3ms
Bit rate mode : Variable
Bit rate : 29.8 Kbps
Width : 720 pixels
Height : 480 pixels
Display aspect ratio : 4:3
Frame rate : 29.970 fps
Standard : NTSC
Compression mode : Lossy
Bits/(Pixel*Frame) : 0.003
Stream size : 10.9 KiB (78%)
Menu
Duration : 3s 0ms
00:00:00.000 : Chapter 1
General
Complete name : D:\Мои релизы\Linha de Passe [DVD9]\VIDEO_TS\VTS_03_0.IFO
Format : DVD Video
Format profile : Program
File size : 14.0 KiB
Duration : 3s 0ms
Overall bit rate : 38.2 Kbps
Video
ID : 224 (0xE0)
Format : MPEG Video
Format version : Version 2
Duration : 3s 3ms
Bit rate mode : Variable
Bit rate : 29.8 Kbps
Width : 720 pixels
Height : 480 pixels
Display aspect ratio : 4:3
Frame rate : 29.970 fps
Standard : NTSC
Compression mode : Lossy
Bits/(Pixel*Frame) : 0.003
Stream size : 10.9 KiB (78%)
Menu
Duration : 3s 0ms
00:00:00.000 : Chapter 1
General
Complete name : D:\Мои релизы\Linha de Passe [DVD9]\VIDEO_TS\VTS_03_1.VOB
Format : MPEG-PS
File size : 20.0 KiB
Duration : 33ms
Overall bit rate : 4 965 Kbps
Video
ID : 224 (0xE0)
Format : MPEG Video
Format version : Version 2
Format profile : Main@Main
Format settings, BVOP : No
Format settings, Matrix : Default
Duration : 33ms
Bit rate mode : Variable
Bit rate : 4 587 Kbps
Width : 720 pixels
Height : 480 pixels
Display aspect ratio : 4:3
Frame rate : 29.970 fps
Standard : NTSC
Color space : YUV
Chroma subsampling : 4:2:0
Bit depth : 8 bits
Scan type : Progressive
Scan order : Top Field First
Compression mode : Lossy
Bits/(Pixel*Frame) : 0.443
Stream size : 18.5 KiB (92%)
Menu
General
Complete name : D:\Мои релизы\Linha de Passe [DVD9]\VIDEO_TS\VTS_04_0.BUP
Format : DVD Video
Format profile : Program
File size : 40.0 KiB
Duration : 6mn 27s
Overall bit rate : 846 bps
Video
ID : 224 (0xE0)
Format : MPEG Video
Format version : Version 2
Duration : 6mn 26s
Bit rate mode : Variable
Width : 720 pixels
Height : 480 pixels
Display aspect ratio : 4:3
Frame rate : 29.970 fps
Standard : NTSC
Compression mode : Lossy
Audio #1
ID : 128 (0x80)
Format : AC-3
Format/Info : Audio Coding 3
Duration : 6mn 27s
Channel(s) : 2 channels
Sampling rate : 48.0 KHz
Compression mode : Lossy
Language : Portuguese
Audio #2
ID : 129 (0x81)
Format : AC-3
Format/Info : Audio Coding 3
Duration : 6mn 27s
Channel(s) : 2 channels
Sampling rate : 48.0 KHz
Compression mode : Lossy
Language : Portuguese
Text #1
ID : 32 (0x20)
Format : RLE
Format/Info : Run-length encoding
Bit depth : 2 bits
Language : Portuguese
Text #2
ID : 32 (0x20)
Format : RLE
Format/Info : Run-length encoding
Bit depth : 2 bits
Language : Spanish
Text #3
ID : 32 (0x20)
Format : RLE
Format/Info : Run-length encoding
Bit depth : 2 bits
Language : English
Menu #1
Duration : 2mn 33s
00:00:00.000 : Chapter 1
00:02:33.000 : Chapter 2
List (Audio) : 0 / 1
List (Subtitles 4/3) : 0 / 1 / 2
List (Subtitles Wide) : 0 / 0 / 0
List (Subtitles Letterbox) : 0 / 0 / 0
List (Subtitles Pan&Scan) : 0 / 0 / 0
Menu #2
Duration : 6mn 27s
00:00:00.000 : Chapter 1
00:00:52.400 : Chapter 2
00:02:45.966 : Chapter 3
00:03:45.166 : Chapter 4
00:05:52.499 : Chapter 5
00:06:26.499 : Chapter 6
List (Audio) : 0 / 1
List (Subtitles 4/3) : 0 / 1 / 2
List (Subtitles Wide) : 0 / 0 / 0
List (Subtitles Letterbox) : 0 / 0 / 0
List (Subtitles Pan&Scan) : 0 / 0 / 0
Menu #3
Duration : 2mn 26s
00:00:00.000 : Chapter 1
00:01:13.266 : Chapter 2
00:01:48.799 : Chapter 3
00:02:25.932 : Chapter 4
List (Audio) : 0 / 1
List (Subtitles 4/3) : 0 / 1 / 2
List (Subtitles Wide) : 0 / 0 / 0
List (Subtitles Letterbox) : 0 / 0 / 0
List (Subtitles Pan&Scan) : 0 / 0 / 0
Menu #4
Duration : 3mn 20s
00:00:00.000 : Chapter 1
00:00:21.000 : Chapter 2
00:00:42.000 : Chapter 3
00:01:19.000 : Chapter 4
00:01:22.000 : Chapter 5
List (Audio) : 0 / 1
List (Subtitles 4/3) : 0 / 1 / 2
List (Subtitles Wide) : 0 / 0 / 0
List (Subtitles Letterbox) : 0 / 0 / 0
List (Subtitles Pan&Scan) : 0 / 0 / 0
General
Complete name : D:\Мои релизы\Linha de Passe [DVD9]\VIDEO_TS\VTS_04_0.IFO
Format : DVD Video
Format profile : Program
File size : 40.0 KiB
Duration : 6mn 27s
Overall bit rate : 846 bps
Video
ID : 224 (0xE0)
Format : MPEG Video
Format version : Version 2
Duration : 6mn 26s
Bit rate mode : Variable
Width : 720 pixels
Height : 480 pixels
Display aspect ratio : 4:3
Frame rate : 29.970 fps
Standard : NTSC
Compression mode : Lossy
Audio #1
ID : 128 (0x80)
Format : AC-3
Format/Info : Audio Coding 3
Duration : 6mn 27s
Channel(s) : 2 channels
Sampling rate : 48.0 KHz
Compression mode : Lossy
Language : Portuguese
Audio #2
ID : 129 (0x81)
Format : AC-3
Format/Info : Audio Coding 3
Duration : 6mn 27s
Channel(s) : 2 channels
Sampling rate : 48.0 KHz
Compression mode : Lossy
Language : Portuguese
Text #1
ID : 32 (0x20)
Format : RLE
Format/Info : Run-length encoding
Bit depth : 2 bits
Language : Portuguese
Text #2
ID : 32 (0x20)
Format : RLE
Format/Info : Run-length encoding
Bit depth : 2 bits
Language : Spanish
Text #3
ID : 32 (0x20)
Format : RLE
Format/Info : Run-length encoding
Bit depth : 2 bits
Language : English
Menu #1
Duration : 2mn 33s
00:00:00.000 : Chapter 1
00:02:33.000 : Chapter 2
List (Audio) : 0 / 1
List (Subtitles 4/3) : 0 / 1 / 2
List (Subtitles Wide) : 0 / 0 / 0
List (Subtitles Letterbox) : 0 / 0 / 0
List (Subtitles Pan&Scan) : 0 / 0 / 0
Menu #2
Duration : 6mn 27s
00:00:00.000 : Chapter 1
00:00:52.400 : Chapter 2
00:02:45.966 : Chapter 3
00:03:45.166 : Chapter 4
00:05:52.499 : Chapter 5
00:06:26.499 : Chapter 6
List (Audio) : 0 / 1
List (Subtitles 4/3) : 0 / 1 / 2
List (Subtitles Wide) : 0 / 0 / 0
List (Subtitles Letterbox) : 0 / 0 / 0
List (Subtitles Pan&Scan) : 0 / 0 / 0
Menu #3
Duration : 2mn 26s
00:00:00.000 : Chapter 1
00:01:13.266 : Chapter 2
00:01:48.799 : Chapter 3
00:02:25.932 : Chapter 4
List (Audio) : 0 / 1
List (Subtitles 4/3) : 0 / 1 / 2
List (Subtitles Wide) : 0 / 0 / 0
List (Subtitles Letterbox) : 0 / 0 / 0
List (Subtitles Pan&Scan) : 0 / 0 / 0
Menu #4
Duration : 3mn 20s
00:00:00.000 : Chapter 1
00:00:21.000 : Chapter 2
00:00:42.000 : Chapter 3
00:01:19.000 : Chapter 4
00:01:22.000 : Chapter 5
List (Audio) : 0 / 1
List (Subtitles 4/3) : 0 / 1 / 2
List (Subtitles Wide) : 0 / 0 / 0
List (Subtitles Letterbox) : 0 / 0 / 0
List (Subtitles Pan&Scan) : 0 / 0 / 0
General
Complete name : D:\Мои релизы\Linha de Passe [DVD9]\VIDEO_TS\VTS_04_0.VOB
Format : MPEG-PS
File size : 6.98 MiB
Duration : 1mn 0s
Overall bit rate : 975 Kbps
Video
ID : 224 (0xE0)
Format : MPEG Video
Format version : Version 2
Format profile : Main@Main
Format settings, BVOP : No
Format settings, Matrix : Default
Format settings, GOP : N=1
Duration : 33ms
Bit rate mode : Constant
Bit rate : 763 Kbps
Nominal bit rate : 8 000 Kbps
Width : 720 pixels
Height : 480 pixels
Display aspect ratio : 4:3
Frame rate : 29.970 fps
Standard : NTSC
Color space : YUV
Chroma subsampling : 4:2:0
Bit depth : 8 bits
Scan type : Progressive
Scan order : Top Field First
Compression mode : Lossy
Bits/(Pixel*Frame) : 0.074
Stream size : 3.07 KiB (0%)
Audio
ID : 128 (0x80)
Format : AC-3
Format/Info : Audio Coding 3
Mode extension : CM (complete main)
Duration : 1mn 0s
Bit rate mode : Constant
Bit rate : 192 Kbps
Channel(s) : 2 channels
Channel positions : Front: L R
Sampling rate : 48.0 KHz
Bit depth : 16 bits
Compression mode : Lossy
Stream size : 1.37 MiB (20%)
Text
ID : 32 (0x20)
Format : RLE
Format/Info : Run-length encoding
Menu
General
Complete name : D:\Мои релизы\Linha de Passe [DVD9]\VIDEO_TS\VTS_04_1.VOB
Format : MPEG-PS
File size : 975 MiB
Duration : 20mn 28s
Overall bit rate : 6 657 Kbps
Video
ID : 224 (0xE0)
Format : MPEG Video
Format version : Version 2
Format profile : Main@Main
Format settings, BVOP : Yes
Format settings, Matrix : Default
Format settings, GOP : M=3, N=12
Duration : 16ms
Bit rate mode : Variable
Bit rate : 6 013 Kbps
Nominal bit rate : 8 000 Kbps
Width : 720 pixels
Height : 480 pixels
Display aspect ratio : 4:3
Frame rate : 29.970 fps
Standard : NTSC
Color space : YUV
Chroma subsampling : 4:2:0
Bit depth : 8 bits
Scan type : Interlaced
Scan order : Bottom Field First
Compression mode : Lossy
Bits/(Pixel*Frame) : 0.581
Stream size : 11.7 KiB (0%)
Audio #1
ID : 128 (0x80)
Format : AC-3
Format/Info : Audio Coding 3
Mode extension : CM (complete main)
Duration : 20mn 28s
Bit rate mode : Constant
Bit rate : 256 Kbps
Channel(s) : 2 channels
Channel positions : Front: L R
Sampling rate : 48.0 KHz
Bit depth : 16 bits
Compression mode : Lossy
Video delay : -66ms
Stream size : 37.5 MiB (4%)
Audio #2
ID : 129 (0x81)
Format : AC-3
Format/Info : Audio Coding 3
Mode extension : CM (complete main)
Duration : 20mn 28s
Bit rate mode : Constant
Bit rate : 256 Kbps
Channel(s) : 2 channels
Channel positions : Front: L R
Sampling rate : 48.0 KHz
Bit depth : 16 bits
Compression mode : Lossy
Video delay : -66ms
Stream size : 37.5 MiB (4%)
Text #1
ID : 32 (0x20)
Format : RLE
Format/Info : Run-length encoding
Video delay : -66ms
Text #2
ID : 33 (0x21)
Format : RLE
Format/Info : Run-length encoding
Video delay : -66ms
Text #3
ID : 34 (0x22)
Format : RLE
Format/Info : Run-length encoding
Video delay : -66ms
Menu

Скриншоты меню

Скриншоты

Скриншоты доп. материалов

[Profile]  [PM] 
Display posts:    
Reply to topic

Current time is: 14-Apr 22:40

All times are UTC + 2



You cannot post new topics in this forum
You cannot reply to topics in this forum
You cannot edit your posts in this forum
You cannot delete your posts in this forum
You cannot vote in polls in this forum
You cannot attach files in this forum
You cannot download files in this forum