Джо / Joe (Дэвид Гордон Грин / David Gordon Green) [2013, США, драма, криминал, DVD5 (Сжатый)] исх. R5, MVO + Sub Rus + Original Eng

Reply to topic
 
Author
Message

Faust ®

Gender: Unknown

Longevity: 9 years 6 months

Posts: 14961

Reputation: 0 [+] [-]

Faust · Post 13-Jun-2014 00:20

[Quote] 

Джо / Joe
Страна: США
Жанр: драма, криминал
Год выпуска: 2013
Продолжительность: 01:52:23
Перевод: Профессиональный (многоголосый закадровый) [Лицензия]
Cубтитры: русские
Оригинальная аудиодорожка: английский
Режиссер: Дэвид Гордон Грин / David Gordon Green
В ролях: Николас Кейдж, Тай Шеридан, Гари Поултер, Ронни Джин Блевинс, Адриэн Мишлер, Брайан Мейс, Адж Уилсон МакФол, Сью Рок, Хезер Кафка, Бренда Исаак Бут...
Описание: В сонном городке на Миссисипи встретилось два одиноких человека. Юный Гари поставил крест на своем будущем, не зная как отвязаться от отца-алкоголика, бывший бандит Джо не желает вспоминать о прошлом. Неожиданно для самих себя они становятся друзьями.
Бонусы: нет
Меню: русское, статичное, озвученное
Тип релиза: DVD5 (Сжатый)
Контейнер: DVD-Video
Видео: PAL 16:9 (720x576) 4 633 Kbps
Аудио: English (Dolby AC3, 6 ch) 448 Kbps
Аудио 2: Russian (Dolby AC3, 6 ch) 448 Kbps

Доп. информация

Обработано в DVDRemake Pro.+Photoshop+Muxman
Видео сжималось 25%.
Сжималось связкой DVD Rebuilder + CCE/Procoder в 5 проходов.
Удалёно: Трейлер, Создатели и исполнители, Смотрите на DVD, заставки и предупреждение.
Лишние кнопки затерты и закрыты.

Лог кодирования

-----------------
[01:55:30] Phase I, PREPARATION started.
- DVD-RB v1.28.2
- AVISYNTH 2.5.8.0
- CCE 1.0.1.9 encoder selected.
- Source: DJO.2013.DVD5
- VTS_04: 2 832 267 sectors.
-- Scanning and writing .D2V & .AVS files
-- Processed 168 595 frames.
-- Building .AVS and .ECL files
- Reduction Level for DVD-5: 75,5%
- Overall Bitrate : 4 475Kbs
- Space for Video : 3 683 844KB
- HIGH/LOW/TYPICAL Bitrates: 4 682/3 094/4 475 Kbs
[01:56:57] Phase I, PREPARATION completed in 1 minutes.
- WARNING: Viewer/Editor settings are over target.
[01:57:26] Phase II ENCODING started
- Creating M2V for VTS_04 segment 0
- Creating M2V for VTS_04 segment 1
- Creating M2V for VTS_04 segment 2
- Creating M2V for VTS_04 segment 3
- Creating M2V for VTS_04 segment 4
- Creating M2V for VTS_04 segment 5
- Creating M2V for VTS_04 segment 6
- Creating M2V for VTS_04 segment 7
- Creating M2V for VTS_04 segment 8
- Creating M2V for VTS_04 segment 9
- Creating M2V for VTS_04 segment 10
- Creating M2V for VTS_04 segment 11
- Creating M2V for VTS_04 segment 12
- Creating M2V for VTS_04 segment 13
- Creating M2V for VTS_04 segment 14
- Creating M2V for VTS_04 segment 15
[02:54:35] Phase II ENCODING completed in 57 minutes.
[08:26:16] Phase II ENCODING started
[08:26:19] Phase II ENCODING completed in 0 minutes.
[08:26:25] Phase III, REBUILD started.
- Copying IFO, BUP, and unaltered files...
- Processing VTS_04
- Reading/processing TMAP table...
- Rebuilding seg 0 VOBID 1 CELLID 1
- Rebuilding seg 1 VOBID 1 CELLID 2
- Rebuilding seg 2 VOBID 1 CELLID 3
- Rebuilding seg 3 VOBID 1 CELLID 4
- Rebuilding seg 4 VOBID 1 CELLID 5
- Rebuilding seg 5 VOBID 1 CELLID 6
- Rebuilding seg 6 VOBID 1 CELLID 7
- Rebuilding seg 7 VOBID 1 CELLID 8
- Rebuilding seg 8 VOBID 1 CELLID 9
- Rebuilding seg 9 VOBID 1 CELLID 10
- Rebuilding seg 10 VOBID 1 CELLID 11
- Rebuilding seg 11 VOBID 1 CELLID 12
- Rebuilding seg 12 VOBID 1 CELLID 13
- Rebuilding seg 13 VOBID 1 CELLID 14
- Rebuilding seg 14 VOBID 1 CELLID 15
- Rebuilding seg 15 VOBID 1 CELLID 16
- Updating NAVPACKS for VOBID_01
- Updated VTS_C_ADT.
- Updated VTS_VOBU_ADMAP.
- Updated IFO: VTS_04_0.IFO
- Updating TMAP table...
- Correcting VTS Sectors...
[08:37:47] Phase III, REBUILD completed in 11 minutes.
Done.

MediaInfo

General
Complete name : D:\_Video\Djo.2013.DVD5\VIDEO_TS\VTS_04_1.VOB
Format : MPEG-PS
File size : 1 024 MiB
Duration : 25mn 22s
Overall bit rate : 5 642 Kbps
Video
ID : 224 (0xE0)
Format : MPEG Video
Format version : Version 2
Format profile : Main@Main
Format settings, BVOP : Yes
Format settings, Matrix : Custom
Duration : 25mn 22s
Bit rate mode : Variable
Bit rate : 4 633 Kbps
Maximum bit rate : 8 904 Kbps
Width : 720 pixels
Height : 576 pixels
Display aspect ratio : 16:9
Frame rate : 25.000 fps
Standard : PAL
Color space : YUV
Chroma subsampling : 4:2:0
Bit depth : 8 bits
Scan type : Progressive
Scan order : Bottom Field First
Compression mode : Lossy
Bits/(Pixel*Frame) : 0.447
Stream size : 841 MiB (82%)
Audio #1
ID : 189 (0xBD)-128 (0x80)
Format : AC-3
Format/Info : Audio Coding 3
Mode extension : CM (complete main)
Muxing mode : DVD-Video
Duration : 25mn 22s
Bit rate mode : Constant
Bit rate : 448 Kbps
Channel(s) : 6 channels
Channel positions : Front: L C R, Side: L R, LFE
Sampling rate : 48.0 KHz
Bit depth : 16 bits
Compression mode : Lossy
Stream size : 81.3 MiB (8%)
Audio #2
ID : 189 (0xBD)-129 (0x81)
Format : AC-3
Format/Info : Audio Coding 3
Mode extension : CM (complete main)
Muxing mode : DVD-Video
Duration : 25mn 22s
Bit rate mode : Constant
Bit rate : 448 Kbps
Channel(s) : 6 channels
Channel positions : Front: L C R, Side: L R, LFE
Sampling rate : 48.0 KHz
Bit depth : 16 bits
Compression mode : Lossy
Stream size : 81.3 MiB (8%)
Text
ID : 189 (0xBD)-32 (0x20)
Format : RLE
Format/Info : Run-length encoding
Muxing mode : DVD-Video
Delay relative to video : 8s 320ms
Menu

DVDInfo

Title: Bob
Size: 4.36 Gb ( 4 576 152 KBytes ) - DVD-5
Enabled regions: 1, 2, 3, 4, 5, 6, 7, 8
VTS_01 :
Play Length:
Video: PAL 4:3 (720x576) VBR
Audio:
Not specified (Dolby AC3, 2 ch)
Not specified (Dolby AC3, 2 ch)
Not specified (Dolby AC3, 2 ch)
Subtitles:
Not specified
Not specified
VTS_02 :
Play Length:
Video: PAL 16:9 (720x576) VBR, Auto Pan&Scan
Audio:
Not specified (Dolby AC3, 2 ch)
Not specified (Dolby AC3, 2 ch)
Not specified (Dolby AC3, 2 ch)
Subtitles:
Not specified
VTS_03 :
Play Length:
Video: PAL 16:9 (720x576) VBR, Auto Pan&Scan
Audio:
Not specified (Dolby AC3, 2 ch)
Not specified (Dolby AC3, 2 ch)
Not specified (Dolby AC3, 2 ch)
Subtitles:
Not specified
VTS_04 :
Play Length: 01:52:23
Video: PAL 16:9 (720x576) VBR, Auto Pan&Scan
Audio:
Russian (Dolby AC3, 6 ch)
English (Dolby AC3, 6 ch)
Subtitles:
Russian
VTS_05 :
Play Length:
Video: PAL 16:9 (720x576) VBR, Auto Pan&Scan
Audio:
Not specified (Dolby AC3, 2 ch)
Subtitles:
Not specified
VTS_06 :
Play Length:
Video: PAL 16:9 (720x576) VBR, Auto Pan&Scan
Audio:
Not specified (Dolby AC3, 2 ch)
Subtitles:
Not specified
VTS_07 :
Play Length:
Video: PAL 16:9 (720x576) VBR, Auto Pan&Scan
Audio:
Not specified (Dolby AC3, 2 ch)
Subtitles:
Not specified
VTS_08 :
Play Length:
Video: PAL 16:9 (720x576) VBR, Auto Pan&Scan
Audio:
Not specified (Dolby AC3, 2 ch)
Subtitles:
Not specified
VTS_09 :
Play Length:
Video: PAL 16:9 (720x576) VBR, Auto Pan&Scan
Audio:
Not specified (Dolby AC3, 2 ch)
Subtitles:
Not specified

Cкриншот финального проекта

Скриншоты меню

Скриншоты


Раздача от группы:
[Profile]  [PM] 
Display posts:    
Reply to topic

Current time is: 14-Apr 22:56

All times are UTC + 2



You cannot post new topics in this forum
You cannot reply to topics in this forum
You cannot edit your posts in this forum
You cannot delete your posts in this forum
You cannot vote in polls in this forum
You cannot attach files in this forum
You cannot download files in this forum