План побега / Escape Plan (Микаэль Хофстрём / Mikael Håfström) [2013, США, боевик, триллер, детектив, DVD5 (Сжатый)] исх. R5, Dub

Reply to topic
 
Author
Message

Faust ®

Gender: Unknown

Longevity: 9 years 6 months

Posts: 14955

Reputation: 0 [+] [-]

Faust · Post 16-Jun-2014 00:20

[Quote] 

План побега / Escape Plan
Страна: США
Жанр: боевик, триллер, детектив
Год выпуска: 2013
Продолжительность: 01:50:52
Перевод: Профессиональный (дублированный) [Лицензия]
Cубтитры: нет
Оригинальная аудиодорожка: нет
Режиссер: Микаэль Хофстрём / Mikael Håfström
В ролях: Сильвестр Сталлоне, Арнольд Шварценеггер, Джеймс Кэвизел, Фифти Сент, Винни Джонс, Винсент Д’Онофрио, Эми Райан, Фаран Таир, Сэм Нил, Мэтт Джералд
Описание: Один из самых выдающихся мировых специалистов по системам безопасности соглашается на последнюю рисковую операцию: сбежать из суперсекретной высокотехнологичной тюрьмы, которую называют «Гробницей». Преданный Рэй Бреслин вынужден прибегнуть к помощи напарника — заключенного Эмиля Ротмайера, чтобы разработать отчаянный и практически неосуществимый план побега из самой защищенной тюрьмы в мире!
Бонусы: нет
Меню: русское, статичное, озвученное
Тип релиза: DVD5 (Сжатый)
Контейнер: DVD-Video
Видео: PAL 16:9 (720x576) 5 155 Kbps
Аудио: Russian (Dolby AC3, 6 ch) 448 Kbps

Доп. информация

Обработано в DVDRemake Pro.+Photoshop+Muxman
Видео сжималось 22%.
Сжималось связкой DVD Rebuilder + CCE/Procoder в 5 проходов.
Удалёно: заставки и предупреждение.

Лог кодирования

-----------------
[20:40:01] Phase I, PREPARATION started.
- DVD-RB v1.28.2
- AVISYNTH 2.5.8.0
- CCE 1.0.1.9 encoder selected.
- Source: PLAN.POBEGA.2013.DVD5
- VTS_03: 2 807 018 sectors.
-- Scanning and writing .D2V & .AVS files
-- Processed 166 302 frames.
-- Building .AVS and .ECL files
- Reduction Level for DVD-5: 78,0%
- Overall Bitrate : 5 013Kbs
- Space for Video : 4 070 640KB
- HIGH/LOW/TYPICAL Bitrates: 5 448/3 523/5 013 Kbs
[20:41:48] Phase I, PREPARATION completed in 1 minutes.
- WARNING: Viewer/Editor settings are over target.
[20:42:03] Phase II ENCODING started
- Creating M2V for VTS_03 segment 0
- Creating M2V for VTS_03 segment 1
- Creating M2V for VTS_03 segment 2
- Creating M2V for VTS_03 segment 3
- Creating M2V for VTS_03 segment 4
- Creating M2V for VTS_03 segment 5
- Creating M2V for VTS_03 segment 6
- Creating M2V for VTS_03 segment 7
- Creating M2V for VTS_03 segment 8
[21:50:29] Phase II ENCODING completed in 68 minutes.
[21:50:32] Phase III, REBUILD started.
- Copying IFO, BUP, and unaltered files...
- Processing VTS_03
- Reading/processing TMAP table...
- Rebuilding seg 0 VOBID 1 CELLID 1
- Rebuilding seg 1 VOBID 1 CELLID 2
- Rebuilding seg 2 VOBID 1 CELLID 3
- Rebuilding seg 3 VOBID 1 CELLID 4
- Rebuilding seg 4 VOBID 1 CELLID 5
- Rebuilding seg 5 VOBID 1 CELLID 6
- Rebuilding seg 6 VOBID 1 CELLID 7
- Rebuilding seg 7 VOBID 1 CELLID 8
- Rebuilding seg 8 VOBID 1 CELLID 9
- Updating NAVPACKS for VOBID_01
- Updated VTS_C_ADT.
- Updated VTS_VOBU_ADMAP.
- Updated IFO: VTS_03_0.IFO
- Updating TMAP table...
- Correcting VTS Sectors...
[22:00:27] Phase III, REBUILD completed in 10 minutes.
Done.

MediaInfo

General
Complete name : D:\_Video\Plan.pobega.2013.DVD5\VIDEO_TS\VTS_03_1.VOB
Format : MPEG-PS
File size : 1 024 MiB
Duration : 25mn 2s
Overall bit rate : 5 717 Kbps
Video
ID : 224 (0xE0)
Format : MPEG Video
Format version : Version 2
Format profile : Main@Main
Format settings, BVOP : Yes
Format settings, Matrix : Custom
Duration : 25mn 2s
Bit rate mode : Variable
Bit rate : 5 155 Kbps
Maximum bit rate : 9 000 Kbps
Width : 720 pixels
Height : 576 pixels
Display aspect ratio : 16:9
Frame rate : 25.000 fps
Standard : PAL
Color space : YUV
Chroma subsampling : 4:2:0
Bit depth : 8 bits
Scan type : Progressive
Scan order : Bottom Field First
Compression mode : Lossy
Bits/(Pixel*Frame) : 0.497
Stream size : 923 MiB (90%)
Audio
ID : 189 (0xBD)-128 (0x80)
Format : AC-3
Format/Info : Audio Coding 3
Mode extension : CM (complete main)
Muxing mode : DVD-Video
Duration : 25mn 2s
Bit rate mode : Constant
Bit rate : 448 Kbps
Channel(s) : 6 channels
Channel positions : Front: L C R, Side: L R, LFE
Sampling rate : 48.0 KHz
Bit depth : 16 bits
Compression mode : Lossy
Stream size : 80.2 MiB (8%)
Menu

DVDInfo

Title: Bob
Size: 4.36 Gb ( 4 575 520 KBytes ) - DVD-5
Enabled regions: 1, 2, 3, 4, 5, 6, 7, 8
VTS_01 :
Play Length:
Video: PAL 4:3 (720x576) VBR
Audio:
Not specified (Dolby AC3, 2 ch)
VTS_02 :
Play Length:
Video: PAL 16:9 (720x576) VBR, Auto Pan&Scan
Audio:
Not specified (Dolby AC3, 2 ch)
VTS_03 :
Play Length: 01:50:52
Video: PAL 16:9 (720x576) VBR, Auto Pan&Scan
Audio:
Russian (Dolby AC3, 6 ch)

Cкриншот финального проекта

Скриншоты меню

Скриншоты


Раздача от группы:
[Profile]  [PM] 
Display posts:    
Reply to topic

Current time is: 14-Apr 00:29

All times are UTC + 2



You cannot post new topics in this forum
You cannot reply to topics in this forum
You cannot edit your posts in this forum
You cannot delete your posts in this forum
You cannot vote in polls in this forum
You cannot attach files in this forum
You cannot download files in this forum