Чума / La Peste / The Plague (Луис Пуэнсо / Luis Puenzo) [1992, Франция, Великобритания, Аргентина, драма, DVD5] VO

Reply to topic
 
Author
Message

Faust ®

Gender: Unknown

Longevity: 9 years 6 months

Posts: 14946

Reputation: 0 [+] [-]

Faust · Post 17-Jun-2014 00:25

[Quote] 

Чума / La Peste / The Plague
Страна: Франция, Великобритания, Аргентина
Студия: Compagnie Française Cinématographique (CFC), The Pepper-Prince Ltd.
Жанр: драма
Год выпуска: 1992
Продолжительность: 01:54:10
Перевод: Одноголосый закадровый Алексей Савченко (студия «Альтера Парс»)
Cубтитры: нет
Оригинальная аудиодорожка: нет
Режиссер: Луис Пуэнсо / Luis Puenzo
В ролях: Уильям Херт, Сандрин Боннэр, Жан-Марк Барр, Роберт Дюваль, Рауль Хулиа, Лаутаро Муруа, Виктория Теннант, Хина Зорилья, Лаура Пальмуччи, Норман Эрлич, Питер Макфарлейн, Лидия Каталано, Фабьяна Уриа, Хуана Идальго, Моника Кастро, Виолета Деккер, Хосе Мария Ланди, Кэтрин Кирби, Мирна Суарес, Ариель Мартинес
Описание: Фильм поставлен по мотивам одноименного произведения Альбера Камю. Действие перенесено в несуществующую крохотную страну Латинской Америки в 1990 год. Чума в столице. Доктор, писатель, телеоператор, журналистка — это люди, на которых сосредоточено внимание авторов фильма. А смысл фильма при всей философской усложненности подтекста в том, что это может случиться с каждым из нас. Чума может вернуться в любой момент. Луис Пуэнсо известен знаменитым фильмом «Официальная история». (Михаил Иванов)-Сначала появились крысы. Они выползали отовсюду. Изо всех нор, щелей, подвалов, ям. Они выползали и подыхали. В агонии и судорогах или просто почти без движения испуская дух. Мало кто из жителей города обращал на дохнувших крыс внимание, и уж почти никому и в голову не приходило, что их массовая смерть означает предвестие страшной беды. Чума! Чума обрушилась на город совершенно неожиданно, как горы крыс. Вернее, вместе с ними. Крысы и вытащили на свет бациллы смертельной болезни...
Нет, это не фильм ужасов. Он, честно говоря, и не о крысах. Он - о людях. И чума - это действительно болезнь. Но не обязательно та, которую
переносят грызуны и насекомые, заражая человека. Есть чума, имеющая цвет. Например, коричневая чума. И она тоже не знает границ. Именно о ней написал свой знаменитый роман Альбер Камю, лауреат Нобелевской премии, трагически и безвременно погибший в автомобильной катастрофе. А аргентинский режиссер Луис Пуэнсо перенес время и место действия из марокканского города Оран и конца 40-х годов в южноамериканский город (название, впрочем, сохранил - Оран) и в наши дни. Режиссеру-аргентинцу, конечно, видней, куда переносить место действия для повествования о коричневой чуме, но он мог и не забираться в южноамериканскую глубинку.
Бонусы: нет
Меню: статичное, неозвученное, на английском языке

Сэмпл: http://multi-up.com/977027
Тип релиза: DVD5
Контейнер: DVD-Video
Видео: PAL 4:3 (720x576(0.454)) MPEG Video, 25,000 кадр/сек, 4710 Кбит/сек
Аудио: Russian (Dolby AC3, 2ch) 256 Кбит/сек, 48,0 КГц

Доп. информация

Издание artvideodvd

DVDInfo

Title:
Size: 4.05 Gb ( 4 243 266 KBytes ) - DVD-5
Enabled regions: 1, 2, 3, 4, 5, 6, 7, 8
VTS_01 :
Play Length: 01:54:10
Video: PAL 4:3 (720x576) VBR
Audio:
Not specified (Dolby AC3, 2 ch)
Menu Video:
PAL 4:3 (720x576) VBR
Menu Subtitles:
Not specified
Menu Language Unit :
Root Menu
Chapter (PTT) Menu

MediaInfo

General
Complete name : D:\odds\Чума\VIDEO_TS\VTS_01_1.VOB
Format : MPEG-PS
File size : 1 024 MiB
Duration : 28mn 12s
Overall bit rate : 5 073 Kbps
Video
ID : 224 (0xE0)
Format : MPEG Video
Format version : Version 2
Format profile : Main@Main
Format settings, BVOP : Yes
Format settings, Matrix : Default
Format settings, GOP : M=3, N=12
Duration : 28mn 12s
Bit rate mode : Constant
Bit rate : 4 710 Kbps
Width : 720 pixels
Height : 576 pixels
Display aspect ratio : 4:3
Frame rate : 25.000 fps
Standard : PAL
Color space : YUV
Chroma subsampling : 4:2:0
Bit depth : 8 bits
Scan type : Interlaced
Scan order : Top Field First
Bits/(Pixel*Frame) : 0.454
Stream size : 952 MiB (93%)
Audio
ID : 128 (0x80)
Format : AC-3
Format/Info : Audio Coding 3
Mode extension : CM (complete main)
Duration : 28mn 12s
Bit rate mode : Constant
Bit rate : 256 Kbps
Channel(s) : 2 channels
Channel positions : Front: L R
Sampling rate : 48.0 KHz
Video delay : -80ms
Stream size : 51.7 MiB (5%)
Menu

Скриншоты меню

Скриншоты

Постеры

[Profile]  [PM] 
Display posts:    
Reply to topic

Current time is: 12-Apr 06:16

All times are UTC + 2



You cannot post new topics in this forum
You cannot reply to topics in this forum
You cannot edit your posts in this forum
You cannot delete your posts in this forum
You cannot vote in polls in this forum
You cannot attach files in this forum
You cannot download files in this forum