Избранный / Den Utvalde (Эрик Донелл / Eric Donell, Мартин Сёдер / Martin Söder) [2005, Швеция, Триллер, криминал, DVD9 (custom)] VO (datynet) + Original (Sv) + Sub (Rus, Sv, Eng)

Reply to topic
 
Author
Message

Faust ®

Gender: Unknown

Longevity: 9 years 6 months

Posts: 14969

Reputation: 0 [+] [-]

Faust · Post 20-Jun-2014 00:25

[Quote] 

Избранный / Den Utvalde- Страна: Швеция
Студия: Desperado Film
Жанр: Триллер, криминал
Год выпуска: 2005
Продолжительность: 01:39:08-Перевод: Одноголосый закадровый [datynet]
Cубтитры: русские - спасибо Ali+sher, шведские, английские
Оригинальная аудиодорожка: шведский-Режиссер: Эрик Донелл / Eric Donell, Мартин Сёдер / Martin Söder-В ролях: Андреас Уилсон, Бьёрн Гранат, Юлия Дуфвениус, Эрик Донелл, Лейф Андре, Хенрик Карлссон, Корнелия Дальгрен, Магнус Эрикссон-Описание: Полиция оказалась бессильна перед жестоким и хладнокровным убийцей, маскирующим свои преступления под несчастные случаи. Комиссар Эрик Сван приглашает студента полицейской академии, известного своими аналитическими способностями, присоединиться к расследованию…-Доп. информация:
- шведскую звуковую дорожку (2.0) заменил на русскую (кнопка в Меню - "Stereo");
- русские субтитры включаются с пульта плеера;
- за исходный DVD9 спасибо edus67
Бонусы: дополнительные материалы включают трейлеры, не вошедшие в фильм сцены, фильм о съемках, информацию об актерах - все на шведском языке
Меню: есть, язык шведский, анимированное, озвученное-Sample | IMDB | КиноПоиск-Тип релиза: DVD9 (Custom)
Контейнер: DVD-Video-Видео: PAL 16:9 (720x576) VBR Auto Letterboxed
Аудио 1: AC3, 3/2+LFE ch, 448Kbps, Delay 0 mSec [Original_Swedish]
Аудио 2: AC3, 2/0 ch, 192Kbps, Delay 0 mSec [Russian_VO]
Аудио 3: AC3, 2/0 ch, 192Kbps, Delay 0 mSec [Director's Comments]-Релиз группы: -

Используемое ПО

1. BeLight - mp3 - wav;
2. Minnetonka Audio Software - wav - ac3;

3. PgcDemux - разборка оригинального DVD;
4. MuxMan - сборка DVD;
5. DVDReMake Pro - финальный проект.

DVDInfo

Title:
Size: 6.55 Gb ( 6 871 602 KBytes ) - DVD-9
Enabled regions: 1, 2, 3, 4, 5, 6, 7, 8
VTS_01 :
Play Length: 00:00:47
Video: PAL 4:3 (720x576) VBR
Audio:
Not specified (Dolby AC3, 2 ch)
VTS_02 :
Play Length:
Video: PAL 4:3 (720x576) VBR
Audio:
Not specified (Dolby AC3, 2 ch)
Not specified (Dolby AC3, 2 ch)
Not specified (Dolby AC3, 2 ch)
VTS_03 :
Play Length: 00:09:16
Video: PAL 4:3 (720x576) VBR
Audio:
Not specified (Dolby AC3, 2 ch)
VTS_04 :
Play Length: 00:00:02
Video: PAL 4:3 (720x576) VBR
Audio:
Not specified (Dolby AC3, 2 ch)
VTS_05 :
Play Length:
Video: PAL 16:9 (720x576) VBR, Auto Letterboxed
Audio:
Not specified (Dolby AC3, 2 ch)
VTS_06 :
Play Length: 00:01:25
Video: PAL 16:9 (720x576) VBR, Auto Letterboxed
Audio:
Not specified (Dolby AC3, 2 ch)
VTS_07 :
Play Length: 00:01:21
Video: PAL 16:9 (720x576) VBR, Auto Letterboxed
Audio:
Not specified (Dolby AC3, 2 ch)
VTS_08 :
Play Length: 00:01:24
Video: PAL 16:9 (720x576) VBR, Auto Letterboxed
Audio:
Not specified (Dolby AC3, 2 ch)
VTS_09 :
Play Length: 00:07:05
Video: PAL 16:9 (720x576) VBR, Auto Letterboxed
Audio:
Not specified (Dolby AC3, 2 ch)
VTS_10 :
Play Length: 00:07:26
Video: PAL 16:9 (720x576) VBR, Auto Letterboxed
Audio:
Not specified (Dolby AC3, 2 ch)
VTS_11 :
Play Length: 00:00:17
Video: PAL 16:9 (720x576) VBR, Auto Letterboxed
Audio:
Not specified (Dolby AC3, 2 ch)
VTS_12 :
Play Length: 00:00:13
Video: PAL 4:3 (720x576) VBR
Audio:
Not specified (Dolby AC3, 2 ch)
VTS_13 :
Play Length: 00:01:24
Video: PAL 4:3 (720x576) VBR
Audio:
Not specified (Dolby AC3, 2 ch)
VTS_14 :
Play Length:
Video: PAL 16:9 (720x576) VBR, Auto Letterboxed
Audio:
Not specified (Dolby AC3, 2 ch)
VTS_15 :
Play Length: 00:00:46
Video: PAL 4:3 (720x576) VBR
Audio:
Not specified (Dolby AC3, 2 ch)
VTS_16 :
Play Length: 01:39:08
Video: PAL 16:9 (720x576) VBR, Auto Letterboxed
Audio:
Svenska (Dolby AC3, 6 ch)
Russian (Dolby AC3, 2 ch)
Svenska (Dolby AC3, 2 ch)
Subtitles:
Svenska
English
Russian
VTS_17 :
Play Length:
Video: PAL 4:3 (720x576) VBR
Menu Video:
NTSC 4:3 (720x480) VBR
Auto Pan&Scan, Auto Letterboxed
Menu Svenska Language Unit :
Root Menu
Subpicture Menu
Audio Menu
Chapter (PTT) Menu

MediaInfo

General
Complete name : D:\Мои релизы\Den utvalde [DVD9]\VIDEO_TS\VIDEO_TS.BUP
Format : DVD Video
Format profile : Menu
File size : 22.0 KiB
Video
ID : 224 (0xE0)
Format : MPEG Video
Format version : Version 1
Bit rate mode : Variable
Width : 720 pixels
Height : 480 pixels
Display aspect ratio : 4:3
Frame rate : 29.970 fps
Standard : NTSC
Compression mode : Lossy
General
Complete name : D:\Мои релизы\Den utvalde [DVD9]\VIDEO_TS\VIDEO_TS.IFO
Format : DVD Video
Format profile : Menu
File size : 22.0 KiB
Video
ID : 224 (0xE0)
Format : MPEG Video
Format version : Version 1
Bit rate mode : Variable
Width : 720 pixels
Height : 480 pixels
Display aspect ratio : 4:3
Frame rate : 29.970 fps
Standard : NTSC
Compression mode : Lossy
General
Complete name : D:\Мои релизы\Den utvalde [DVD9]\VIDEO_TS\VTS_01_0.BUP
Format : DVD Video
Format profile : Program
File size : 42.0 KiB
Duration : 47s 840ms
Overall bit rate : 7 191 bps
Video
ID : 224 (0xE0)
Format : MPEG Video
Format version : Version 2
Duration : 47s 840ms
Bit rate mode : Variable
Width : 720 pixels
Height : 576 pixels
Display aspect ratio : 4:3
Frame rate : 25.000 fps
Standard : PAL
Compression mode : Lossy
Audio
ID : 128 (0x80)
Format : AC-3
Format/Info : Audio Coding 3
Duration : 47s 840ms
Channel(s) : 2 channels
Sampling rate : 48.0 KHz
Compression mode : Lossy
Menu
Duration : 47s 840ms
00:00:00.000 : Chapter 1
00:00:47.440 : Chapter 2
List (Audio) : 0
General
Complete name : D:\Мои релизы\Den utvalde [DVD9]\VIDEO_TS\VTS_01_0.IFO
Format : DVD Video
Format profile : Program
File size : 42.0 KiB
Duration : 47s 840ms
Overall bit rate : 7 191 bps
Video
ID : 224 (0xE0)
Format : MPEG Video
Format version : Version 2
Duration : 47s 840ms
Bit rate mode : Variable
Width : 720 pixels
Height : 576 pixels
Display aspect ratio : 4:3
Frame rate : 25.000 fps
Standard : PAL
Compression mode : Lossy
Audio
ID : 128 (0x80)
Format : AC-3
Format/Info : Audio Coding 3
Duration : 47s 840ms
Channel(s) : 2 channels
Sampling rate : 48.0 KHz
Compression mode : Lossy
Menu
Duration : 47s 840ms
00:00:00.000 : Chapter 1
00:00:47.440 : Chapter 2
List (Audio) : 0
General
Complete name : D:\Мои релизы\Den utvalde [DVD9]\VIDEO_TS\VTS_01_0.VOB
Format : MPEG-PS
File size : 563 MiB
Overall bit rate : 0
Video
ID : 224 (0xE0)
Format : MPEG Video
Format version : Version 2
Format profile : Main@Main
Format settings, BVOP : Yes
Format settings, Matrix : Default
Format settings, GOP : M=3, N=12
Duration : 2s 0ms
Bit rate mode : Variable
Nominal bit rate : 8 000 Kbps
Width : 720 pixels
Height : 576 pixels
Display aspect ratio : 16:9
Frame rate : 25.000 fps
Standard : PAL
Color space : YUV
Chroma subsampling : 4:2:0
Bit depth : 8 bits
Scan type : Interlaced
Scan order : Bottom Field First
Compression mode : Lossy
Bits/(Pixel*Frame) : 0.772
Audio
ID : 128 (0x80)
Format : AC-3
Format/Info : Audio Coding 3
Mode extension : CM (complete main)
Bit rate mode : Constant
Bit rate : 192 Kbps
Channel(s) : 2 channels
Channel positions : Front: L R
Sampling rate : 48.0 KHz
Bit depth : 16 bits
Compression mode : Lossy
Stream size : 403 ?iB
Text #1
ID : 32 (0x20)
Format : RLE
Format/Info : Run-length encoding
Text #2
ID : 33 (0x21)
Format : RLE
Format/Info : Run-length encoding
Menu
General
Complete name : D:\Мои релизы\Den utvalde [DVD9]\VIDEO_TS\VTS_01_1.VOB
Format : MPEG-PS
File size : 34.5 MiB
Duration : 47s 872ms
Overall bit rate : 6 053 Kbps
Video
ID : 224 (0xE0)
Format : MPEG Video
Format version : Version 2
Format profile : Main@Main
Format settings, BVOP : Yes
Format settings, Matrix : Default
Format settings, GOP : M=3, N=12
Duration : 47s 840ms
Bit rate mode : Variable
Bit rate : 5 741 Kbps
Nominal bit rate : 7 700 Kbps
Width : 720 pixels
Height : 576 pixels
Display aspect ratio : 4:3
Frame rate : 25.000 fps
Standard : PAL
Color space : YUV
Chroma subsampling : 4:2:0
Bit depth : 8 bits
Scan type : Interlaced
Scan order : Bottom Field First
Compression mode : Lossy
Bits/(Pixel*Frame) : 0.554
Stream size : 32.7 MiB (95%)
Audio
ID : 128 (0x80)
Format : AC-3
Format/Info : Audio Coding 3
Mode extension : CM (complete main)
Duration : 47s 872ms
Bit rate mode : Constant
Bit rate : 192 Kbps
Channel(s) : 2 channels
Channel positions : Front: L R
Sampling rate : 48.0 KHz
Bit depth : 16 bits
Compression mode : Lossy
Stream size : 1.10 MiB (3%)
Menu
General
Complete name : D:\Мои релизы\Den utvalde [DVD9]\VIDEO_TS\VTS_02_0.BUP
Format : DVD Video
Format profile : Program
File size : 20.0 KiB
Duration : 960ms
Overall bit rate : 171 Kbps
Video
ID : 224 (0xE0)
Format : MPEG Video
Format version : Version 2
Duration : 960ms
Bit rate mode : Variable
Width : 720 pixels
Height : 576 pixels
Display aspect ratio : 4:3
Frame rate : 25.000 fps
Standard : PAL
Compression mode : Lossy
Audio #1
ID : 128 (0x80)
Format : AC-3
Format/Info : Audio Coding 3
Duration : 960ms
Channel(s) : 2 channels
Sampling rate : 48.0 KHz
Compression mode : Lossy
Audio #2
ID : 129 (0x81)
Format : AC-3
Format/Info : Audio Coding 3
Duration : 960ms
Channel(s) : 2 channels
Sampling rate : 48.0 KHz
Compression mode : Lossy
Audio #3
ID : 130 (0x82)
Format : AC-3
Format/Info : Audio Coding 3
Duration : 960ms
Channel(s) : 2 channels
Sampling rate : 48.0 KHz
Compression mode : Lossy
Menu
Duration : 960ms
00:00:00.000 : Chapter 1
00:00:00.480 : Chapter 2
List (Audio) : 0 / 1 / 2
General
Complete name : D:\Мои релизы\Den utvalde [DVD9]\VIDEO_TS\VTS_02_0.IFO
Format : DVD Video
Format profile : Program
File size : 20.0 KiB
Duration : 960ms
Overall bit rate : 171 Kbps
Video
ID : 224 (0xE0)
Format : MPEG Video
Format version : Version 2
Duration : 960ms
Bit rate mode : Variable
Width : 720 pixels
Height : 576 pixels
Display aspect ratio : 4:3
Frame rate : 25.000 fps
Standard : PAL
Compression mode : Lossy
Audio #1
ID : 128 (0x80)
Format : AC-3
Format/Info : Audio Coding 3
Duration : 960ms
Channel(s) : 2 channels
Sampling rate : 48.0 KHz
Compression mode : Lossy
Audio #2
ID : 129 (0x81)
Format : AC-3
Format/Info : Audio Coding 3
Duration : 960ms
Channel(s) : 2 channels
Sampling rate : 48.0 KHz
Compression mode : Lossy
Audio #3
ID : 130 (0x82)
Format : AC-3
Format/Info : Audio Coding 3
Duration : 960ms
Channel(s) : 2 channels
Sampling rate : 48.0 KHz
Compression mode : Lossy
Menu
Duration : 960ms
00:00:00.000 : Chapter 1
00:00:00.480 : Chapter 2
List (Audio) : 0 / 1 / 2
General
Complete name : D:\Мои релизы\Den utvalde [DVD9]\VIDEO_TS\VTS_02_0.VOB
Format : MPEG-PS
File size : 116 KiB
Duration : 40ms
Overall bit rate : 23.8 Mbps
Video
ID : 224 (0xE0)
Format : MPEG Video
Format version : Version 2
Format profile : Main@Main
Format settings, BVOP : No
Format settings, Matrix : Default
Duration : 40ms
Bit rate mode : Variable
Bit rate : 9 000 Kbps
Width : 720 pixels
Height : 576 pixels
Display aspect ratio : 16:9
Frame rate : 25.000 fps
Standard : PAL
Color space : YUV
Chroma subsampling : 4:2:0
Bit depth : 8 bits
Scan type : Progressive
Scan order : Top Field First
Compression mode : Lossy
Bits/(Pixel*Frame) : 0.868
Stream size : 43.9 KiB (38%)
Text #1
ID : 32 (0x20)
Format : RLE
Format/Info : Run-length encoding
Text #2
ID : 33 (0x21)
Format : RLE
Format/Info : Run-length encoding
Menu
General
Complete name : D:\Мои релизы\Den utvalde [DVD9]\VIDEO_TS\VTS_02_1.VOB
Format : MPEG-PS
File size : 20.0 KiB
Duration : 40ms
Overall bit rate : 4 096 Kbps
Video
ID : 224 (0xE0)
Format : MPEG Video
Format version : Version 2
Format profile : Main@Main
Format settings, BVOP : No
Format settings, Matrix : Default
Format settings, GOP : N=1
Duration : 40ms
Bit rate mode : Constant
Bit rate : 8 000 Kbps
Width : 720 pixels
Height : 576 pixels
Display aspect ratio : 16:9
Frame rate : 25.000 fps
Standard : PAL
Color space : YUV
Chroma subsampling : 4:2:0
Bit depth : 8 bits
Scan type : Progressive
Scan order : Top Field First
Compression mode : Lossy
Bits/(Pixel*Frame) : 0.772
Stream size : 39.1 KiB
Menu
General
Complete name : D:\Мои релизы\Den utvalde [DVD9]\VIDEO_TS\VTS_03_0.BUP
Format : DVD Video
Format profile : Program
File size : 20.0 KiB
Duration : 9mn 16s
Overall bit rate : 294 bps
Video
ID : 224 (0xE0)
Format : MPEG Video
Format version : Version 2
Duration : 9mn 16s
Bit rate mode : Variable
Width : 720 pixels
Height : 576 pixels
Display aspect ratio : 4:3
Frame rate : 25.000 fps
Standard : PAL
Compression mode : Lossy
Audio
ID : 128 (0x80)
Format : AC-3
Format/Info : Audio Coding 3
Duration : 9mn 16s
Channel(s) : 2 channels
Sampling rate : 48.0 KHz
Compression mode : Lossy
Menu
Duration : 9mn 16s
00:00:00.000 : Chapter 1
00:09:15.840 : Chapter 2
List (Audio) : 0
General
Complete name : D:\Мои релизы\Den utvalde [DVD9]\VIDEO_TS\VTS_03_0.IFO
Format : DVD Video
Format profile : Program
File size : 20.0 KiB
Duration : 9mn 16s
Overall bit rate : 294 bps
Video
ID : 224 (0xE0)
Format : MPEG Video
Format version : Version 2
Duration : 9mn 16s
Bit rate mode : Variable
Width : 720 pixels
Height : 576 pixels
Display aspect ratio : 4:3
Frame rate : 25.000 fps
Standard : PAL
Compression mode : Lossy
Audio
ID : 128 (0x80)
Format : AC-3
Format/Info : Audio Coding 3
Duration : 9mn 16s
Channel(s) : 2 channels
Sampling rate : 48.0 KHz
Compression mode : Lossy
Menu
Duration : 9mn 16s
00:00:00.000 : Chapter 1
00:09:15.840 : Chapter 2
List (Audio) : 0
General
Complete name : D:\Мои релизы\Den utvalde [DVD9]\VIDEO_TS\VTS_03_1.VOB
Format : MPEG-PS
File size : 433 MiB
Duration : 9mn 16s
Overall bit rate : 6 533 Kbps
Video
ID : 224 (0xE0)
Format : MPEG Video
Format version : Version 2
Format profile : Main@Main
Format settings, BVOP : Yes
Format settings, Matrix : Default
Format settings, GOP : M=3, N=12
Duration : 9mn 16s
Bit rate mode : Variable
Bit rate : 6 211 Kbps
Nominal bit rate : 7 800 Kbps
Width : 720 pixels
Height : 576 pixels
Display aspect ratio : 16:9
Frame rate : 25.000 fps
Standard : PAL
Color space : YUV
Chroma subsampling : 4:2:0
Bit depth : 8 bits
Scan type : Interlaced
Scan order : Bottom Field First
Compression mode : Lossy
Bits/(Pixel*Frame) : 0.599
Stream size : 412 MiB (95%)
Audio
ID : 128 (0x80)
Format : AC-3
Format/Info : Audio Coding 3
Mode extension : ME (music and effects)
Duration : 9mn 16s
Bit rate mode : Constant
Bit rate : 192 Kbps
Channel(s) : 2 channels
Channel positions : Front: L R
Sampling rate : 48.0 KHz
Bit depth : 16 bits
Compression mode : Lossy
Stream size : 12.7 MiB (3%)
Menu
General
Complete name : D:\Мои релизы\Den utvalde [DVD9]\VIDEO_TS\VTS_04_0.BUP
Format : DVD Video
Format profile : Program
File size : 14.0 KiB
Duration : 2s 880ms
Overall bit rate : 39.8 Kbps
Video
ID : 224 (0xE0)
Format : MPEG Video
Format version : Version 2
Duration : 2s 880ms
Bit rate mode : Variable
Width : 720 pixels
Height : 576 pixels
Display aspect ratio : 4:3
Frame rate : 25.000 fps
Standard : PAL
Compression mode : Lossy
Audio
ID : 128 (0x80)
Format : AC-3
Format/Info : Audio Coding 3
Duration : 2s 880ms
Channel(s) : 2 channels
Sampling rate : 48.0 KHz
Compression mode : Lossy
Menu
Duration : 2s 880ms
00:00:00.000 : Chapter 1
00:00:00.480 : Chapter 2
00:00:00.960 : Chapter 3
00:00:01.440 : Chapter 4
00:00:01.920 : Chapter 5
00:00:02.400 : Chapter 6
List (Audio) : 0
General
Complete name : D:\Мои релизы\Den utvalde [DVD9]\VIDEO_TS\VTS_04_0.IFO
Format : DVD Video
Format profile : Program
File size : 14.0 KiB
Duration : 2s 880ms
Overall bit rate : 39.8 Kbps
Video
ID : 224 (0xE0)
Format : MPEG Video
Format version : Version 2
Duration : 2s 880ms
Bit rate mode : Variable
Width : 720 pixels
Height : 576 pixels
Display aspect ratio : 4:3
Frame rate : 25.000 fps
Standard : PAL
Compression mode : Lossy
Audio
ID : 128 (0x80)
Format : AC-3
Format/Info : Audio Coding 3
Duration : 2s 880ms
Channel(s) : 2 channels
Sampling rate : 48.0 KHz
Compression mode : Lossy
Menu
Duration : 2s 880ms
00:00:00.000 : Chapter 1
00:00:00.480 : Chapter 2
00:00:00.960 : Chapter 3
00:00:01.440 : Chapter 4
00:00:01.920 : Chapter 5
00:00:02.400 : Chapter 6
List (Audio) : 0
General
Complete name : D:\Мои релизы\Den utvalde [DVD9]\VIDEO_TS\VTS_04_1.VOB
Format : MPEG-PS
File size : 60.0 KiB
Duration : 40ms
Overall bit rate : 12.3 Mbps
Video
ID : 224 (0xE0)
Format : MPEG Video
Format version : Version 2
Format profile : Main@Main
Format settings, BVOP : No
Format settings, Matrix : Default
Format settings, GOP : N=1
Duration : 40ms
Bit rate mode : Constant
Bit rate : 8 000 Kbps
Width : 720 pixels
Height : 576 pixels
Display aspect ratio : 16:9
Frame rate : 25.000 fps
Standard : PAL
Color space : YUV
Chroma subsampling : 4:2:0
Bit depth : 8 bits
Scan type : Progressive
Scan order : Top Field First
Compression mode : Lossy
Bits/(Pixel*Frame) : 0.772
Stream size : 39.1 KiB (65%)
Menu
General
Complete name : D:\Мои релизы\Den utvalde [DVD9]\VIDEO_TS\VTS_05_0.BUP
Format : DVD Video
Format profile : Program
File size : 14.0 KiB
Duration : 400ms
Overall bit rate : 287 Kbps
Video
ID : 224 (0xE0)
Format : MPEG Video
Format version : Version 2
Duration : 400ms
Bit rate mode : Variable
Width : 720 pixels
Height : 576 pixels
Display aspect ratio : 16:9
Frame rate : 25.000 fps
Standard : PAL
Compression mode : Lossy
Audio
ID : 128 (0x80)
Format : AC-3
Format/Info : Audio Coding 3
Duration : 400ms
Channel(s) : 2 channels
Sampling rate : 48.0 KHz
Compression mode : Lossy
Menu
Duration : 400ms
00:00:00.000 : Chapter 1
List (Audio) : 0
General
Complete name : D:\Мои релизы\Den utvalde [DVD9]\VIDEO_TS\VTS_05_0.IFO
Format : DVD Video
Format profile : Program
File size : 14.0 KiB
Duration : 400ms
Overall bit rate : 287 Kbps
Video
ID : 224 (0xE0)
Format : MPEG Video
Format version : Version 2
Duration : 400ms
Bit rate mode : Variable
Width : 720 pixels
Height : 576 pixels
Display aspect ratio : 16:9
Frame rate : 25.000 fps
Standard : PAL
Compression mode : Lossy
Audio
ID : 128 (0x80)
Format : AC-3
Format/Info : Audio Coding 3
Duration : 400ms
Channel(s) : 2 channels
Sampling rate : 48.0 KHz
Compression mode : Lossy
Menu
Duration : 400ms
00:00:00.000 : Chapter 1
List (Audio) : 0
General
Complete name : D:\Мои релизы\Den utvalde [DVD9]\VIDEO_TS\VTS_05_1.VOB
Format : MPEG-PS
File size : 14.0 KiB
Duration : 400ms
Overall bit rate : 287 Kbps
Writing library : encoded by TMPGEnc (ver. 2.524.63.181)
Video
ID : 224 (0xE0)
Format : MPEG Video
Format version : Version 2
Format profile : Main@Main
Format settings, BVOP : No
Format settings, Matrix : Default
Duration : 400ms
Bit rate mode : Constant
Bit rate : 100.0 Kbps
Width : 720 pixels
Height : 576 pixels
Display aspect ratio : 4:3
Frame rate : 25.000 fps
Standard : PAL
Color space : YUV
Chroma subsampling : 4:2:0
Bit depth : 8 bits
Scan type : Progressive
Compression mode : Lossy
Bits/(Pixel*Frame) : 0.010
Stream size : 4.88 KiB (35%)
Writing library : TMPGEnc 2.524.63.181
Menu
General
Complete name : D:\Мои релизы\Den utvalde [DVD9]\VIDEO_TS\VTS_06_0.BUP
Format : DVD Video
Format profile : Program
File size : 14.0 KiB
Duration : 1mn 25s
Overall bit rate : 1 348 bps
Video
ID : 224 (0xE0)
Format : MPEG Video
Format version : Version 2
Duration : 1mn 25s
Bit rate mode : Variable
Width : 720 pixels
Height : 576 pixels
Display aspect ratio : 16:9
Frame rate : 25.000 fps
Standard : PAL
Compression mode : Lossy
Audio
ID : 128 (0x80)
Format : AC-3
Format/Info : Audio Coding 3
Duration : 1mn 25s
Channel(s) : 2 channels
Sampling rate : 48.0 KHz
Compression mode : Lossy
Menu
Duration : 1mn 25s
00:00:00.000 : Chapter 1
00:01:24.000 : Chapter 2
List (Audio) : 0
General
Complete name : D:\Мои релизы\Den utvalde [DVD9]\VIDEO_TS\VTS_06_0.IFO
Format : DVD Video
Format profile : Program
File size : 14.0 KiB
Duration : 1mn 25s
Overall bit rate : 1 348 bps
Video
ID : 224 (0xE0)
Format : MPEG Video
Format version : Version 2
Duration : 1mn 25s
Bit rate mode : Variable
Width : 720 pixels
Height : 576 pixels
Display aspect ratio : 16:9
Frame rate : 25.000 fps
Standard : PAL
Compression mode : Lossy
Audio
ID : 128 (0x80)
Format : AC-3
Format/Info : Audio Coding 3
Duration : 1mn 25s
Channel(s) : 2 channels
Sampling rate : 48.0 KHz
Compression mode : Lossy
Menu
Duration : 1mn 25s
00:00:00.000 : Chapter 1
00:01:24.000 : Chapter 2
List (Audio) : 0
General
Complete name : D:\Мои релизы\Den utvalde [DVD9]\VIDEO_TS\VTS_06_1.VOB
Format : MPEG-PS
File size : 65.6 MiB
Duration : 1mn 25s
Overall bit rate : 6 467 Kbps
Video
ID : 224 (0xE0)
Format : MPEG Video
Format version : Version 2
Format profile : Main@Main
Format settings, BVOP : Yes
Format settings, Matrix : Default
Format settings, GOP : M=3, N=12
Duration : 1mn 25s
Bit rate mode : Variable
Bit rate : 6 146 Kbps
Nominal bit rate : 7 700 Kbps
Width : 720 pixels
Height : 576 pixels
Display aspect ratio : 16:9
Frame rate : 25.000 fps
Standard : PAL
Color space : YUV
Chroma subsampling : 4:2:0
Bit depth : 8 bits
Scan type : Interlaced
Scan order : Bottom Field First
Compression mode : Lossy
Bits/(Pixel*Frame) : 0.593
Stream size : 62.3 MiB (95%)
Audio
ID : 128 (0x80)
Format : AC-3
Format/Info : Audio Coding 3
Mode extension : CM (complete main)
Duration : 1mn 25s
Bit rate mode : Constant
Bit rate : 192 Kbps
Channel(s) : 2 channels
Channel positions : Front: L R
Sampling rate : 48.0 KHz
Bit depth : 16 bits
Compression mode : Lossy
Stream size : 1.95 MiB (3%)
Menu
General
Complete name : D:\Мои релизы\Den utvalde [DVD9]\VIDEO_TS\VTS_07_0.BUP
Format : DVD Video
Format profile : Program
File size : 14.0 KiB
Duration : 1mn 21s
Overall bit rate : 1 415 bps
Video
ID : 224 (0xE0)
Format : MPEG Video
Format version : Version 2
Duration : 1mn 21s
Bit rate mode : Variable
Width : 720 pixels
Height : 576 pixels
Display aspect ratio : 16:9
Frame rate : 25.000 fps
Standard : PAL
Compression mode : Lossy
Audio
ID : 128 (0x80)
Format : AC-3
Format/Info : Audio Coding 3
Duration : 1mn 21s
Channel(s) : 2 channels
Sampling rate : 48.0 KHz
Compression mode : Lossy
Menu
Duration : 1mn 21s
00:00:00.000 : Chapter 1
00:01:20.600 : Chapter 2
List (Audio) : 0
General
Complete name : D:\Мои релизы\Den utvalde [DVD9]\VIDEO_TS\VTS_07_0.IFO
Format : DVD Video
Format profile : Program
File size : 14.0 KiB
Duration : 1mn 21s
Overall bit rate : 1 415 bps
Video
ID : 224 (0xE0)
Format : MPEG Video
Format version : Version 2
Duration : 1mn 21s
Bit rate mode : Variable
Width : 720 pixels
Height : 576 pixels
Display aspect ratio : 16:9
Frame rate : 25.000 fps
Standard : PAL
Compression mode : Lossy
Audio
ID : 128 (0x80)
Format : AC-3
Format/Info : Audio Coding 3
Duration : 1mn 21s
Channel(s) : 2 channels
Sampling rate : 48.0 KHz
Compression mode : Lossy
Menu
Duration : 1mn 21s
00:00:00.000 : Chapter 1
00:01:20.600 : Chapter 2
List (Audio) : 0
General
Complete name : D:\Мои релизы\Den utvalde [DVD9]\VIDEO_TS\VTS_07_1.VOB
Format : MPEG-PS
File size : 60.9 MiB
Duration : 1mn 21s
Overall bit rate : 6 298 Kbps
Video
ID : 224 (0xE0)
Format : MPEG Video
Format version : Version 2
Format profile : Main@Main
Format settings, BVOP : Yes
Format settings, Matrix : Default
Format settings, GOP : M=3, N=12
Duration : 1mn 21s
Bit rate mode : Variable
Bit rate : 5 981 Kbps
Nominal bit rate : 7 800 Kbps
Width : 720 pixels
Height : 576 pixels
Display aspect ratio : 16:9
Frame rate : 25.000 fps
Standard : PAL
Color space : YUV
Chroma subsampling : 4:2:0
Bit depth : 8 bits
Scan type : Interlaced
Scan order : Bottom Field First
Compression mode : Lossy
Bits/(Pixel*Frame) : 0.577
Stream size : 57.8 MiB (95%)
Audio
ID : 128 (0x80)
Format : AC-3
Format/Info : Audio Coding 3
Mode extension : ME (music and effects)
Duration : 1mn 21s
Bit rate mode : Constant
Bit rate : 192 Kbps
Channel(s) : 2 channels
Channel positions : Front: L R
Sampling rate : 48.0 KHz
Bit depth : 16 bits
Compression mode : Lossy
Stream size : 1.86 MiB (3%)
Menu
General
Complete name : D:\Мои релизы\Den utvalde [DVD9]\VIDEO_TS\VTS_08_0.BUP
Format : DVD Video
Format profile : Program
File size : 14.0 KiB
Duration : 1mn 24s
Overall bit rate : 1 355 bps
Video
ID : 224 (0xE0)
Format : MPEG Video
Format version : Version 2
Duration : 1mn 24s
Bit rate mode : Variable
Width : 720 pixels
Height : 576 pixels
Display aspect ratio : 16:9
Frame rate : 25.000 fps
Standard : PAL
Compression mode : Lossy
Audio
ID : 128 (0x80)
Format : AC-3
Format/Info : Audio Coding 3
Duration : 1mn 24s
Channel(s) : 2 channels
Sampling rate : 48.0 KHz
Compression mode : Lossy
Menu
Duration : 1mn 24s
00:00:00.000 : Chapter 1
00:01:24.000 : Chapter 2
List (Audio) : 0
General
Complete name : D:\Мои релизы\Den utvalde [DVD9]\VIDEO_TS\VTS_08_0.IFO
Format : DVD Video
Format profile : Program
File size : 14.0 KiB
Duration : 1mn 24s
Overall bit rate : 1 355 bps
Video
ID : 224 (0xE0)
Format : MPEG Video
Format version : Version 2
Duration : 1mn 24s
Bit rate mode : Variable
Width : 720 pixels
Height : 576 pixels
Display aspect ratio : 16:9
Frame rate : 25.000 fps
Standard : PAL
Compression mode : Lossy
Audio
ID : 128 (0x80)
Format : AC-3
Format/Info : Audio Coding 3
Duration : 1mn 24s
Channel(s) : 2 channels
Sampling rate : 48.0 KHz
Compression mode : Lossy
Menu
Duration : 1mn 24s
00:00:00.000 : Chapter 1
00:01:24.000 : Chapter 2
List (Audio) : 0
General
Complete name : D:\Мои релизы\Den utvalde [DVD9]\VIDEO_TS\VTS_08_1.VOB
Format : MPEG-PS
File size : 63.6 MiB
Duration : 1mn 24s
Overall bit rate : 6 304 Kbps
Video
ID : 224 (0xE0)
Format : MPEG Video
Format version : Version 2
Format profile : Main@Main
Format settings, BVOP : Yes
Format settings, Matrix : Default
Format settings, GOP : M=3, N=12
Duration : 1mn 24s
Bit rate mode : Variable
Bit rate : 5 986 Kbps
Nominal bit rate : 7 800 Kbps
Width : 720 pixels
Height : 576 pixels
Display aspect ratio : 16:9
Frame rate : 25.000 fps
Standard : PAL
Color space : YUV
Chroma subsampling : 4:2:0
Bit depth : 8 bits
Scan type : Interlaced
Scan order : Bottom Field First
Compression mode : Lossy
Bits/(Pixel*Frame) : 0.577
Stream size : 60.3 MiB (95%)
Audio
ID : 128 (0x80)
Format : AC-3
Format/Info : Audio Coding 3
Mode extension : ME (music and effects)
Duration : 1mn 24s
Bit rate mode : Constant
Bit rate : 192 Kbps
Channel(s) : 2 channels
Channel positions : Front: L R
Sampling rate : 48.0 KHz
Bit depth : 16 bits
Compression mode : Lossy
Stream size : 1.94 MiB (3%)
Menu
General
Complete name : D:\Мои релизы\Den utvalde [DVD9]\VIDEO_TS\VTS_09_0.BUP
Format : DVD Video
Format profile : Program
File size : 16.0 KiB
Duration : 7mn 5s
Overall bit rate : 308 bps
Video
ID : 224 (0xE0)
Format : MPEG Video
Format version : Version 2
Duration : 7mn 5s
Bit rate mode : Variable
Width : 720 pixels
Height : 576 pixels
Display aspect ratio : 16:9
Frame rate : 25.000 fps
Standard : PAL
Compression mode : Lossy
Audio
ID : 128 (0x80)
Format : AC-3
Format/Info : Audio Coding 3
Duration : 7mn 5s
Channel(s) : 2 channels
Sampling rate : 48.0 KHz
Compression mode : Lossy
Menu
Duration : 7mn 5s
00:00:00.000 : Chapter 1
00:00:02.280 : Chapter 2
00:01:45.000 : Chapter 3
00:04:35.000 : Chapter 4
00:05:35.000 : Chapter 5
00:06:10.000 : Chapter 6
00:07:02.280 : Chapter 7
List (Audio) : 0
General
Complete name : D:\Мои релизы\Den utvalde [DVD9]\VIDEO_TS\VTS_09_0.IFO
Format : DVD Video
Format profile : Program
File size : 16.0 KiB
Duration : 7mn 5s
Overall bit rate : 308 bps
Video
ID : 224 (0xE0)
Format : MPEG Video
Format version : Version 2
Duration : 7mn 5s
Bit rate mode : Variable
Width : 720 pixels
Height : 576 pixels
Display aspect ratio : 16:9
Frame rate : 25.000 fps
Standard : PAL
Compression mode : Lossy
Audio
ID : 128 (0x80)
Format : AC-3
Format/Info : Audio Coding 3
Duration : 7mn 5s
Channel(s) : 2 channels
Sampling rate : 48.0 KHz
Compression mode : Lossy
Menu
Duration : 7mn 5s
00:00:00.000 : Chapter 1
00:00:02.280 : Chapter 2
00:01:45.000 : Chapter 3
00:04:35.000 : Chapter 4
00:05:35.000 : Chapter 5
00:06:10.000 : Chapter 6
00:07:02.280 : Chapter 7
List (Audio) : 0
General
Complete name : D:\Мои релизы\Den utvalde [DVD9]\VIDEO_TS\VTS_09_1.VOB
Format : MPEG-PS
File size : 113 MiB
Duration : 7mn 5s
Overall bit rate : 2 238 Kbps
Video
ID : 224 (0xE0)
Format : MPEG Video
Format version : Version 2
Format profile : Main@Main
Format settings, BVOP : Yes
Format settings, Matrix : Default
Duration : 7mn 5s
Bit rate mode : Variable
Bit rate : 2 002 Kbps
Width : 720 pixels
Height : 576 pixels
Display aspect ratio : 16:9
Frame rate : 25.000 fps
Standard : PAL
Color space : YUV
Chroma subsampling : 4:2:0
Bit depth : 8 bits
Compression mode : Lossy
Bits/(Pixel*Frame) : 0.193
Stream size : 101 MiB (89%)
Audio
ID : 128 (0x80)
Format : AC-3
Format/Info : Audio Coding 3
Mode extension : ME (music and effects)
Duration : 7mn 5s
Bit rate mode : Constant
Bit rate : 192 Kbps
Channel(s) : 2 channels
Channel positions : Front: L R
Sampling rate : 48.0 KHz
Bit depth : 16 bits
Compression mode : Lossy
Stream size : 9.73 MiB (9%)
Menu
General
Complete name : D:\Мои релизы\Den utvalde [DVD9]\VIDEO_TS\VTS_10_0.BUP
Format : DVD Video
Format profile : Program
File size : 16.0 KiB
Duration : 7mn 26s
Overall bit rate : 293 bps
Video
ID : 224 (0xE0)
Format : MPEG Video
Format version : Version 2
Duration : 7mn 26s
Bit rate mode : Variable
Width : 720 pixels
Height : 576 pixels
Display aspect ratio : 16:9
Frame rate : 25.000 fps
Standard : PAL
Compression mode : Lossy
Audio
ID : 128 (0x80)
Format : AC-3
Format/Info : Audio Coding 3
Duration : 7mn 26s
Channel(s) : 2 channels
Sampling rate : 48.0 KHz
Compression mode : Lossy
Menu
Duration : 7mn 26s
00:00:00.000 : Chapter 1
00:00:02.600 : Chapter 2
00:01:46.400 : Chapter 3
00:04:08.320 : Chapter 4
00:05:19.280 : Chapter 5
00:07:23.560 : Chapter 6
List (Audio) : 0
General
Complete name : D:\Мои релизы\Den utvalde [DVD9]\VIDEO_TS\VTS_10_0.IFO
Format : DVD Video
Format profile : Program
File size : 16.0 KiB
Duration : 7mn 26s
Overall bit rate : 293 bps
Video
ID : 224 (0xE0)
Format : MPEG Video
Format version : Version 2
Duration : 7mn 26s
Bit rate mode : Variable
Width : 720 pixels
Height : 576 pixels
Display aspect ratio : 16:9
Frame rate : 25.000 fps
Standard : PAL
Compression mode : Lossy
Audio
ID : 128 (0x80)
Format : AC-3
Format/Info : Audio Coding 3
Duration : 7mn 26s
Channel(s) : 2 channels
Sampling rate : 48.0 KHz
Compression mode : Lossy
Menu
Duration : 7mn 26s
00:00:00.000 : Chapter 1
00:00:02.600 : Chapter 2
00:01:46.400 : Chapter 3
00:04:08.320 : Chapter 4
00:05:19.280 : Chapter 5
00:07:23.560 : Chapter 6
List (Audio) : 0
General
Complete name : D:\Мои релизы\Den utvalde [DVD9]\VIDEO_TS\VTS_10_1.VOB
Format : MPEG-PS
File size : 103 MiB
Duration : 7mn 26s
Overall bit rate : 1 943 Kbps
Video
ID : 224 (0xE0)
Format : MPEG Video
Format version : Version 2
Format profile : Main@Main
Format settings, BVOP : Yes
Format settings, Matrix : Default
Duration : 7mn 26s
Bit rate mode : Variable
Bit rate : 1 712 Kbps
Width : 720 pixels
Height : 576 pixels
Display aspect ratio : 16:9
Frame rate : 25.000 fps
Standard : PAL
Color space : YUV
Chroma subsampling : 4:2:0
Bit depth : 8 bits
Compression mode : Lossy
Bits/(Pixel*Frame) : 0.165
Stream size : 91.0 MiB (88%)
Audio
ID : 128 (0x80)
Format : AC-3
Format/Info : Audio Coding 3
Mode extension : ME (music and effects)
Duration : 7mn 26s
Bit rate mode : Constant
Bit rate : 192 Kbps
Channel(s) : 2 channels
Channel positions : Front: L R
Sampling rate : 48.0 KHz
Bit depth : 16 bits
Compression mode : Lossy
Stream size : 10.2 MiB (10%)
Menu
General
Complete name : D:\Мои релизы\Den utvalde [DVD9]\VIDEO_TS\VTS_11_0.BUP
Format : DVD Video
Format profile : Program
File size : 14.0 KiB
Duration : 17s 280ms
Overall bit rate : 6 637 bps
Video
ID : 224 (0xE0)
Format : MPEG Video
Format version : Version 2
Duration : 17s 280ms
Bit rate mode : Variable
Width : 720 pixels
Height : 576 pixels
Display aspect ratio : 16:9
Frame rate : 25.000 fps
Standard : PAL
Compression mode : Lossy
Audio
ID : 128 (0x80)
Format : AC-3
Format/Info : Audio Coding 3
Duration : 17s 280ms
Channel(s) : 2 channels
Sampling rate : 48.0 KHz
Compression mode : Lossy
Menu
Duration : 17s 280ms
00:00:00.000 : Chapter 1
00:00:16.800 : Chapter 2
List (Audio) : 0
General
Complete name : D:\Мои релизы\Den utvalde [DVD9]\VIDEO_TS\VTS_11_0.IFO
Format : DVD Video
Format profile : Program
File size : 14.0 KiB
Duration : 17s 280ms
Overall bit rate : 6 637 bps
Video
ID : 224 (0xE0)
Format : MPEG Video
Format version : Version 2
Duration : 17s 280ms
Bit rate mode : Variable
Width : 720 pixels
Height : 576 pixels
Display aspect ratio : 16:9
Frame rate : 25.000 fps
Standard : PAL
Compression mode : Lossy
Audio
ID : 128 (0x80)
Format : AC-3
Format/Info : Audio Coding 3
Duration : 17s 280ms
Channel(s) : 2 channels
Sampling rate : 48.0 KHz
Compression mode : Lossy
Menu
Duration : 17s 280ms
00:00:00.000 : Chapter 1
00:00:16.800 : Chapter 2
List (Audio) : 0
General
Complete name : D:\Мои релизы\Den utvalde [DVD9]\VIDEO_TS\VTS_11_1.VOB
Format : MPEG-PS
File size : 12.9 MiB
Duration : 17s 312ms
Overall bit rate : 6 243 Kbps
Video
ID : 224 (0xE0)
Format : MPEG Video
Format version : Version 2
Format profile : Main@Main
Format settings, BVOP : Yes
Format settings, Matrix : Default
Format settings, GOP : M=3, N=12
Duration : 17s 240ms
Bit rate mode : Variable
Bit rate : 5 927 Kbps
Nominal bit rate : 7 800 Kbps
Width : 720 pixels
Height : 576 pixels
Display aspect ratio : 16:9
Frame rate : 25.000 fps
Standard : PAL
Color space : YUV
Chroma subsampling : 4:2:0
Bit depth : 8 bits
Scan type : Interlaced
Scan order : Bottom Field First
Compression mode : Lossy
Bits/(Pixel*Frame) : 0.572
Stream size : 12.2 MiB (95%)
Audio
ID : 128 (0x80)
Format : AC-3
Format/Info : Audio Coding 3
Mode extension : ME (music and effects)
Duration : 17s 312ms
Bit rate mode : Constant
Bit rate : 192 Kbps
Channel(s) : 2 channels
Channel positions : Front: L R
Sampling rate : 48.0 KHz
Bit depth : 16 bits
Compression mode : Lossy
Stream size : 406 KiB (3%)
Menu
General
Complete name : D:\Мои релизы\Den utvalde [DVD9]\VIDEO_TS\VTS_12_0.BUP
Format : DVD Video
Format profile : Program
File size : 14.0 KiB
Duration : 13s 200ms
Overall bit rate : 8 688 bps
Video
ID : 224 (0xE0)
Format : MPEG Video
Format version : Version 2
Duration : 13s 200ms
Bit rate mode : Variable
Width : 720 pixels
Height : 576 pixels
Display aspect ratio : 4:3
Frame rate : 25.000 fps
Standard : PAL
Compression mode : Lossy
Audio
ID : 128 (0x80)
Format : AC-3
Format/Info : Audio Coding 3
Duration : 13s 200ms
Channel(s) : 2 channels
Sampling rate : 48.0 KHz
Compression mode : Lossy
Menu
Duration : 13s 200ms
00:00:00.000 : Chapter 1
00:00:12.480 : Chapter 2
List (Audio) : 0
General
Complete name : D:\Мои релизы\Den utvalde [DVD9]\VIDEO_TS\VTS_12_0.IFO
Format : DVD Video
Format profile : Program
File size : 14.0 KiB
Duration : 13s 200ms
Overall bit rate : 8 688 bps
Video
ID : 224 (0xE0)
Format : MPEG Video
Format version : Version 2
Duration : 13s 200ms
Bit rate mode : Variable
Width : 720 pixels
Height : 576 pixels
Display aspect ratio : 4:3
Frame rate : 25.000 fps
Standard : PAL
Compression mode : Lossy
Audio
ID : 128 (0x80)
Format : AC-3
Format/Info : Audio Coding 3
Duration : 13s 200ms
Channel(s) : 2 channels
Sampling rate : 48.0 KHz
Compression mode : Lossy
Menu
Duration : 13s 200ms
00:00:00.000 : Chapter 1
00:00:12.480 : Chapter 2
List (Audio) : 0
General
Complete name : D:\Мои релизы\Den utvalde [DVD9]\VIDEO_TS\VTS_12_1.VOB
Format : MPEG-PS
File size : 9.93 MiB
Duration : 13s 248ms
Overall bit rate : 6 287 Kbps
Video
ID : 224 (0xE0)
Format : MPEG Video
Format version : Version 2
Format profile : Main@Main
Format settings, BVOP : Yes
Format settings, Matrix : Default
Format settings, GOP : M=3, N=12
Duration : 13s 200ms
Bit rate mode : Variable
Bit rate : 5 970 Kbps
Nominal bit rate : 7 800 Kbps
Width : 720 pixels
Height : 576 pixels
Display aspect ratio : 16:9
Frame rate : 25.000 fps
Standard : PAL
Color space : YUV
Chroma subsampling : 4:2:0
Bit depth : 8 bits
Scan type : Interlaced
Scan order : Bottom Field First
Compression mode : Lossy
Bits/(Pixel*Frame) : 0.576
Stream size : 9.39 MiB (95%)
Audio
ID : 128 (0x80)
Format : AC-3
Format/Info : Audio Coding 3
Mode extension : ME (music and effects)
Duration : 13s 248ms
Bit rate mode : Constant
Bit rate : 192 Kbps
Channel(s) : 2 channels
Channel positions : Front: L R
Sampling rate : 48.0 KHz
Bit depth : 16 bits
Compression mode : Lossy
Stream size : 311 KiB (3%)
Menu
General
Complete name : D:\Мои релизы\Den utvalde [DVD9]\VIDEO_TS\VTS_13_0.BUP
Format : DVD Video
Format profile : Program
File size : 14.0 KiB
Duration : 1mn 24s
Overall bit rate : 1 363 bps
Video
ID : 224 (0xE0)
Format : MPEG Video
Format version : Version 2
Duration : 1mn 24s
Bit rate mode : Variable
Width : 720 pixels
Height : 576 pixels
Display aspect ratio : 4:3
Frame rate : 25.000 fps
Standard : PAL
Compression mode : Lossy
Audio
ID : 128 (0x80)
Format : AC-3
Format/Info : Audio Coding 3
Duration : 1mn 24s
Channel(s) : 2 channels
Sampling rate : 48.0 KHz
Compression mode : Lossy
Menu
Duration : 1mn 24s
00:00:00.000 : Chapter 1
00:01:23.520 : Chapter 2
List (Audio) : 0
General
Complete name : D:\Мои релизы\Den utvalde [DVD9]\VIDEO_TS\VTS_13_0.IFO
Format : DVD Video
Format profile : Program
File size : 14.0 KiB
Duration : 1mn 24s
Overall bit rate : 1 363 bps
Video
ID : 224 (0xE0)
Format : MPEG Video
Format version : Version 2
Duration : 1mn 24s
Bit rate mode : Variable
Width : 720 pixels
Height : 576 pixels
Display aspect ratio : 4:3
Frame rate : 25.000 fps
Standard : PAL
Compression mode : Lossy
Audio
ID : 128 (0x80)
Format : AC-3
Format/Info : Audio Coding 3
Duration : 1mn 24s
Channel(s) : 2 channels
Sampling rate : 48.0 KHz
Compression mode : Lossy
Menu
Duration : 1mn 24s
00:00:00.000 : Chapter 1
00:01:23.520 : Chapter 2
List (Audio) : 0
General
Complete name : D:\Мои релизы\Den utvalde [DVD9]\VIDEO_TS\VTS_13_1.VOB
Format : MPEG-PS
File size : 61.6 MiB
Duration : 1mn 24s
Overall bit rate : 6 138 Kbps
Video
ID : 224 (0xE0)
Format : MPEG Video
Format version : Version 2
Format profile : Main@Main
Format settings, BVOP : Yes
Format settings, Matrix : Default
Format settings, GOP : M=3, N=12
Duration : 1mn 24s
Bit rate mode : Variable
Bit rate : 5 824 Kbps
Nominal bit rate : 7 800 Kbps
Width : 720 pixels
Height : 576 pixels
Display aspect ratio : 16:9
Frame rate : 25.000 fps
Standard : PAL
Color space : YUV
Chroma subsampling : 4:2:0
Bit depth : 8 bits
Scan type : Interlaced
Scan order : Bottom Field First
Compression mode : Lossy
Bits/(Pixel*Frame) : 0.562
Stream size : 58.4 MiB (95%)
Audio
ID : 128 (0x80)
Format : AC-3
Format/Info : Audio Coding 3
Mode extension : CM (complete main)
Duration : 1mn 24s
Bit rate mode : Constant
Bit rate : 192 Kbps
Channel(s) : 2 channels
Channel positions : Front: L R
Sampling rate : 48.0 KHz
Bit depth : 16 bits
Compression mode : Lossy
Stream size : 1.93 MiB (3%)
Menu
General
Complete name : D:\Мои релизы\Den utvalde [DVD9]\VIDEO_TS\VTS_14_0.BUP
Format : DVD Video
Format profile : Program
File size : 14.0 KiB
Duration : 400ms
Overall bit rate : 287 Kbps
Video
ID : 224 (0xE0)
Format : MPEG Video
Format version : Version 2
Duration : 400ms
Bit rate mode : Variable
Width : 720 pixels
Height : 576 pixels
Display aspect ratio : 16:9
Frame rate : 25.000 fps
Standard : PAL
Compression mode : Lossy
Audio
ID : 128 (0x80)
Format : AC-3
Format/Info : Audio Coding 3
Duration : 400ms
Channel(s) : 2 channels
Sampling rate : 48.0 KHz
Compression mode : Lossy
Menu
Duration : 400ms
00:00:00.000 : Chapter 1
List (Audio) : 0
General
Complete name : D:\Мои релизы\Den utvalde [DVD9]\VIDEO_TS\VTS_14_0.IFO
Format : DVD Video
Format profile : Program
File size : 14.0 KiB
Duration : 400ms
Overall bit rate : 287 Kbps
Video
ID : 224 (0xE0)
Format : MPEG Video
Format version : Version 2
Duration : 400ms
Bit rate mode : Variable
Width : 720 pixels
Height : 576 pixels
Display aspect ratio : 16:9
Frame rate : 25.000 fps
Standard : PAL
Compression mode : Lossy
Audio
ID : 128 (0x80)
Format : AC-3
Format/Info : Audio Coding 3
Duration : 400ms
Channel(s) : 2 channels
Sampling rate : 48.0 KHz
Compression mode : Lossy
Menu
Duration : 400ms
00:00:00.000 : Chapter 1
List (Audio) : 0
General
Complete name : D:\Мои релизы\Den utvalde [DVD9]\VIDEO_TS\VTS_14_1.VOB
Format : MPEG-PS
File size : 14.0 KiB
Duration : 400ms
Overall bit rate : 287 Kbps
Writing library : encoded by TMPGEnc (ver. 2.524.63.181)
Video
ID : 224 (0xE0)
Format : MPEG Video
Format version : Version 2
Format profile : Main@Main
Format settings, BVOP : No
Format settings, Matrix : Default
Duration : 400ms
Bit rate mode : Constant
Bit rate : 100.0 Kbps
Width : 720 pixels
Height : 576 pixels
Display aspect ratio : 4:3
Frame rate : 25.000 fps
Standard : PAL
Color space : YUV
Chroma subsampling : 4:2:0
Bit depth : 8 bits
Scan type : Progressive
Compression mode : Lossy
Bits/(Pixel*Frame) : 0.010
Stream size : 4.88 KiB (35%)
Writing library : TMPGEnc 2.524.63.181
Menu
General
Complete name : D:\Мои релизы\Den utvalde [DVD9]\VIDEO_TS\VTS_15_0.BUP
Format : DVD Video
Format profile : Program
File size : 14.0 KiB
Duration : 46s 240ms
Overall bit rate : 2 480 bps
Video
ID : 224 (0xE0)
Format : MPEG Video
Format version : Version 2
Duration : 46s 240ms
Bit rate mode : Variable
Width : 720 pixels
Height : 576 pixels
Display aspect ratio : 4:3
Frame rate : 25.000 fps
Standard : PAL
Compression mode : Lossy
Audio
ID : 128 (0x80)
Format : AC-3
Format/Info : Audio Coding 3
Duration : 46s 240ms
Channel(s) : 2 channels
Sampling rate : 48.0 KHz
Compression mode : Lossy
Menu
Duration : 46s 240ms
00:00:00.000 : Chapter 1
00:00:45.600 : Chapter 2
List (Audio) : 0
General
Complete name : D:\Мои релизы\Den utvalde [DVD9]\VIDEO_TS\VTS_15_0.IFO
Format : DVD Video
Format profile : Program
File size : 14.0 KiB
Duration : 46s 240ms
Overall bit rate : 2 480 bps
Video
ID : 224 (0xE0)
Format : MPEG Video
Format version : Version 2
Duration : 46s 240ms
Bit rate mode : Variable
Width : 720 pixels
Height : 576 pixels
Display aspect ratio : 4:3
Frame rate : 25.000 fps
Standard : PAL
Compression mode : Lossy
Audio
ID : 128 (0x80)
Format : AC-3
Format/Info : Audio Coding 3
Duration : 46s 240ms
Channel(s) : 2 channels
Sampling rate : 48.0 KHz
Compression mode : Lossy
Menu
Duration : 46s 240ms
00:00:00.000 : Chapter 1
00:00:45.600 : Chapter 2
List (Audio) : 0
General
Complete name : D:\Мои релизы\Den utvalde [DVD9]\VIDEO_TS\VTS_15_1.VOB
Format : MPEG-PS
File size : 35.7 MiB
Duration : 46s 272ms
Overall bit rate : 6 464 Kbps
Video
ID : 224 (0xE0)
Format : MPEG Video
Format version : Version 2
Format profile : Main@Main
Format settings, BVOP : Yes
Format settings, Matrix : Default
Format settings, GOP : M=3, N=12
Duration : 46s 200ms
Bit rate mode : Variable
Bit rate : 6 143 Kbps
Nominal bit rate : 7 800 Kbps
Width : 720 pixels
Height : 576 pixels
Display aspect ratio : 16:9
Frame rate : 25.000 fps
Standard : PAL
Color space : YUV
Chroma subsampling : 4:2:0
Bit depth : 8 bits
Scan type : Interlaced
Scan order : Top Field First
Compression mode : Lossy
Bits/(Pixel*Frame) : 0.593
Stream size : 33.8 MiB (95%)
Audio
ID : 128 (0x80)
Format : AC-3
Format/Info : Audio Coding 3
Mode extension : ME (music and effects)
Duration : 46s 272ms
Bit rate mode : Constant
Bit rate : 192 Kbps
Channel(s) : 2 channels
Channel positions : Front: L R
Sampling rate : 48.0 KHz
Bit depth : 16 bits
Compression mode : Lossy
Stream size : 1.06 MiB (3%)
Menu
General
Complete name : D:\Мои релизы\Den utvalde [DVD9]\VIDEO_TS\VTS_16_0.BUP
Format : DVD Video
Format profile : Program
File size : 68.0 KiB
Duration : 1h 39mn
Overall bit rate : 93 bps
Video
ID : 224 (0xE0)
Format : MPEG Video
Format version : Version 2
Duration : 1h 39mn
Bit rate mode : Variable
Width : 720 pixels
Height : 576 pixels
Display aspect ratio : 16:9
Frame rate : 25.000 fps
Standard : PAL
Compression mode : Lossy
Audio #1
ID : 128 (0x80)
Format : AC-3
Format/Info : Audio Coding 3
Duration : 1h 39mn
Channel(s) : 6 channels
Sampling rate : 48.0 KHz
Compression mode : Lossy
Language : Swedish
Audio #2
ID : 129 (0x81)
Format : AC-3
Format/Info : Audio Coding 3
Duration : 1h 39mn
Channel(s) : 2 channels
Sampling rate : 48.0 KHz
Compression mode : Lossy
Language : Russian
Audio #3
ID : 130 (0x82)
Format : AC-3
Format/Info : Audio Coding 3
Duration : 1h 39mn
Channel(s) : 2 channels
Sampling rate : 48.0 KHz
Compression mode : Lossy
Language : Swedish
Language, more info : Director's comments
Text #1
ID : 32 (0x20)
Format : RLE
Format/Info : Run-length encoding
Bit depth : 2 bits
Language : Swedish
Text #2
ID : 33 (0x21)
Format : RLE
Format/Info : Run-length encoding
Bit depth : 2 bits
Language : English
Text #3
ID : 34 (0x22)
Format : RLE
Format/Info : Run-length encoding
Bit depth : 2 bits
Language : Russian
Menu
Duration : 1h 39mn
00:00:00.000 : Chapter 1
00:02:49.920 : Chapter 2
00:09:43.680 : Chapter 3
00:13:45.120 : Chapter 4
00:22:38.880 : Chapter 5
00:27:52.320 : Chapter 6
00:31:42.720 : Chapter 7
00:38:09.120 : Chapter 8
00:44:15.360 : Chapter 9
00:53:42.720 : Chapter 10
00:55:52.320 : Chapter 11
00:58:46.080 : Chapter 12
01:02:48.480 : Chapter 13
01:04:52.320 : Chapter 14
01:13:02.400 : Chapter 15
01:19:57.120 : Chapter 16
01:31:18.720 : Chapter 17
01:33:35.520 : Chapter 18
01:39:06.720 : Chapter 19
List (Audio) : 0 / 1 / 2
List (Subtitles 4/3) : 0 / 0 / 0
List (Subtitles Wide) : 0 / 1 / 2
List (Subtitles Letterbox) : 0 / 1 / 2
List (Subtitles Pan&Scan) : 0 / 0 / 0
General
Complete name : D:\Мои релизы\Den utvalde [DVD9]\VIDEO_TS\VTS_16_0.IFO
Format : DVD Video
Format profile : Program
File size : 68.0 KiB
Duration : 1h 39mn
Overall bit rate : 93 bps
Video
ID : 224 (0xE0)
Format : MPEG Video
Format version : Version 2
Duration : 1h 39mn
Bit rate mode : Variable
Width : 720 pixels
Height : 576 pixels
Display aspect ratio : 16:9
Frame rate : 25.000 fps
Standard : PAL
Compression mode : Lossy
Audio #1
ID : 128 (0x80)
Format : AC-3
Format/Info : Audio Coding 3
Duration : 1h 39mn
Channel(s) : 6 channels
Sampling rate : 48.0 KHz
Compression mode : Lossy
Language : Swedish
Audio #2
ID : 129 (0x81)
Format : AC-3
Format/Info : Audio Coding 3
Duration : 1h 39mn
Channel(s) : 2 channels
Sampling rate : 48.0 KHz
Compression mode : Lossy
Language : Russian
Audio #3
ID : 130 (0x82)
Format : AC-3
Format/Info : Audio Coding 3
Duration : 1h 39mn
Channel(s) : 2 channels
Sampling rate : 48.0 KHz
Compression mode : Lossy
Language : Swedish
Language, more info : Director's comments
Text #1
ID : 32 (0x20)
Format : RLE
Format/Info : Run-length encoding
Bit depth : 2 bits
Language : Swedish
Text #2
ID : 33 (0x21)
Format : RLE
Format/Info : Run-length encoding
Bit depth : 2 bits
Language : English
Text #3
ID : 34 (0x22)
Format : RLE
Format/Info : Run-length encoding
Bit depth : 2 bits
Language : Russian
Menu
Duration : 1h 39mn
00:00:00.000 : Chapter 1
00:02:49.920 : Chapter 2
00:09:43.680 : Chapter 3
00:13:45.120 : Chapter 4
00:22:38.880 : Chapter 5
00:27:52.320 : Chapter 6
00:31:42.720 : Chapter 7
00:38:09.120 : Chapter 8
00:44:15.360 : Chapter 9
00:53:42.720 : Chapter 10
00:55:52.320 : Chapter 11
00:58:46.080 : Chapter 12
01:02:48.480 : Chapter 13
01:04:52.320 : Chapter 14
01:13:02.400 : Chapter 15
01:19:57.120 : Chapter 16
01:31:18.720 : Chapter 17
01:33:35.520 : Chapter 18
01:39:06.720 : Chapter 19
List (Audio) : 0 / 1 / 2
List (Subtitles 4/3) : 0 / 0 / 0
List (Subtitles Wide) : 0 / 1 / 2
List (Subtitles Letterbox) : 0 / 1 / 2
List (Subtitles Pan&Scan) : 0 / 0 / 0
General
Complete name : D:\Мои релизы\Den utvalde [DVD9]\VIDEO_TS\VTS_16_1.VOB
Format : MPEG-PS
File size : 1 024 MiB
Duration : 20mn 12s
Overall bit rate : 7 083 Kbps
Video
ID : 224 (0xE0)
Format : MPEG Video
Format version : Version 2
Format profile : Main@Main
Format settings, BVOP : Yes
Format settings, Matrix : Default
Format settings, GOP : M=3, N=12
Duration : 20mn 12s
Bit rate mode : Variable
Bit rate : 6 110 Kbps
Nominal bit rate : 7 800 Kbps
Width : 720 pixels
Height : 576 pixels
Display aspect ratio : 16:9
Frame rate : 25.000 fps
Standard : PAL
Color space : YUV
Chroma subsampling : 4:2:0
Bit depth : 8 bits
Scan type : Interlaced
Scan order : Bottom Field First
Compression mode : Lossy
Bits/(Pixel*Frame) : 0.589
Stream size : 883 MiB (86%)
Audio #1
ID : 128 (0x80)
Format : AC-3
Format/Info : Audio Coding 3
Mode extension : CM (complete main)
Duration : 20mn 12s
Bit rate mode : Constant
Bit rate : 448 Kbps
Channel(s) : 6 channels
Channel positions : Front: L C R, Side: L R, LFE
Sampling rate : 48.0 KHz
Bit depth : 16 bits
Compression mode : Lossy
Stream size : 64.8 MiB (6%)
Audio #2
ID : 129 (0x81)
Format : AC-3
Format/Info : Audio Coding 3
Mode extension : CM (complete main)
Duration : 20mn 12s
Bit rate mode : Constant
Bit rate : 192 Kbps
Channel(s) : 2 channels
Channel positions : Front: L R
Sampling rate : 48.0 KHz
Bit depth : 16 bits
Compression mode : Lossy
Stream size : 27.8 MiB (3%)
Audio #3
ID : 130 (0x82)
Format : AC-3
Format/Info : Audio Coding 3
Mode extension : CM (complete main)
Duration : 20mn 12s
Bit rate mode : Constant
Bit rate : 192 Kbps
Channel(s) : 2 channels
Channel positions : Front: L R
Sampling rate : 48.0 KHz
Bit depth : 16 bits
Compression mode : Lossy
Stream size : 27.8 MiB (3%)
Text #1
ID : 32 (0x20)
Format : RLE
Format/Info : Run-length encoding
Text #2
ID : 33 (0x21)
Format : RLE
Format/Info : Run-length encoding
Text #3
ID : 34 (0x22)
Format : RLE
Format/Info : Run-length encoding
Menu
General
Complete name : D:\Мои релизы\Den utvalde [DVD9]\VIDEO_TS\VTS_16_2.VOB
Format : MPEG-PS
File size : 1 024 MiB
Duration : 18mn 38s
Overall bit rate : 7 678 Kbps
Video
ID : 224 (0xE0)
Format : MPEG Video
Format version : Version 2
Format profile : Main@Main
Format settings, BVOP : Yes
Format settings, Matrix : Default
Format settings, GOP : M=3, N=12
Duration : 18mn 38s
Bit rate mode : Variable
Bit rate : 6 693 Kbps
Nominal bit rate : 7 800 Kbps
Width : 720 pixels
Height : 576 pixels
Display aspect ratio : 16:9
Frame rate : 25.000 fps
Standard : PAL
Color space : YUV
Chroma subsampling : 4:2:0
Bit depth : 8 bits
Scan type : Interlaced
Scan order : Bottom Field First
Compression mode : Lossy
Bits/(Pixel*Frame) : 0.646
Stream size : 892 MiB (87%)
Audio #1
ID : 128 (0x80)
Format : AC-3
Format/Info : Audio Coding 3
Mode extension : CM (complete main)
Duration : 18mn 38s
Bit rate mode : Constant
Bit rate : 448 Kbps
Channel(s) : 6 channels
Channel positions : Front: L C R, Side: L R, LFE
Sampling rate : 48.0 KHz
Bit depth : 16 bits
Compression mode : Lossy
Video delay : -480ms
Stream size : 59.8 MiB (6%)
Audio #2
ID : 129 (0x81)
Format : AC-3
Format/Info : Audio Coding 3
Mode extension : CM (complete main)
Duration : 18mn 38s
Bit rate mode : Constant
Bit rate : 192 Kbps
Channel(s) : 2 channels
Channel positions : Front: L R
Sampling rate : 48.0 KHz
Bit depth : 16 bits
Compression mode : Lossy
Video delay : -416ms
Stream size : 25.6 MiB (3%)
Audio #3
ID : 130 (0x82)
Format : AC-3
Format/Info : Audio Coding 3
Mode extension : CM (complete main)
Duration : 18mn 38s
Bit rate mode : Constant
Bit rate : 192 Kbps
Channel(s) : 2 channels
Channel positions : Front: L R
Sampling rate : 48.0 KHz
Bit depth : 16 bits
Compression mode : Lossy
Video delay : -416ms
Stream size : 25.6 MiB (3%)
Menu
General
Complete name : D:\Мои релизы\Den utvalde [DVD9]\VIDEO_TS\VTS_16_3.VOB
Format : MPEG-PS
File size : 1 024 MiB
Duration : 19mn 30s
Overall bit rate : 7 339 Kbps
Video
ID : 224 (0xE0)
Format : MPEG Video
Format version : Version 2
Format profile : Main@Main
Format settings, BVOP : Yes
Format settings, Matrix : Default
Format settings, GOP : M=3, N=12
Duration : 19mn 30s
Bit rate mode : Variable
Bit rate : 6 361 Kbps
Nominal bit rate : 7 800 Kbps
Width : 720 pixels
Height : 576 pixels
Display aspect ratio : 16:9
Frame rate : 25.000 fps
Standard : PAL
Color space : YUV
Chroma subsampling : 4:2:0
Bit depth : 8 bits
Scan type : Interlaced
Scan order : Bottom Field First
Compression mode : Lossy
Bits/(Pixel*Frame) : 0.614
Stream size : 887 MiB (87%)
Audio #1
ID : 128 (0x80)
Format : AC-3
Format/Info : Audio Coding 3
Mode extension : CM (complete main)
Duration : 19mn 30s
Bit rate mode : Constant
Bit rate : 448 Kbps
Channel(s) : 6 channels
Channel positions : Front: L C R, Side: L R, LFE
Sampling rate : 48.0 KHz
Bit depth : 16 bits
Compression mode : Lossy
Video delay : -544ms
Stream size : 62.5 MiB (6%)
Audio #2
ID : 129 (0x81)
Format : AC-3
Format/Info : Audio Coding 3
Mode extension : CM (complete main)
Duration : 19mn 30s
Bit rate mode : Constant
Bit rate : 192 Kbps
Channel(s) : 2 channels
Channel positions : Front: L R
Sampling rate : 48.0 KHz
Bit depth : 16 bits
Compression mode : Lossy
Video delay : -480ms
Stream size : 26.8 MiB (3%)
Audio #3
ID : 130 (0x82)
Format : AC-3
Format/Info : Audio Coding 3
Mode extension : CM (complete main)
Duration : 19mn 30s
Bit rate mode : Constant
Bit rate : 192 Kbps
Channel(s) : 2 channels
Channel positions : Front: L R
Sampling rate : 48.0 KHz
Bit depth : 16 bits
Compression mode : Lossy
Video delay : -480ms
Stream size : 26.8 MiB (3%)
Text #1
ID : 32 (0x20)
Format : RLE
Format/Info : Run-length encoding
Text #2
ID : 33 (0x21)
Format : RLE
Format/Info : Run-length encoding
Text #3
ID : 34 (0x22)
Format : RLE
Format/Info : Run-length encoding
Menu
General
Complete name : D:\Мои релизы\Den utvalde [DVD9]\VIDEO_TS\VTS_16_4.VOB
Format : MPEG-PS
File size : 1 024 MiB
Duration : 19mn 27s
Overall bit rate : 7 356 Kbps
Video
ID : 224 (0xE0)
Format : MPEG Video
Format version : Version 2
Format profile : Main@Main
Format settings, BVOP : Yes
Format settings, Matrix : Default
Format settings, GOP : M=3, N=12
Duration : 19mn 27s
Bit rate mode : Variable
Bit rate : 6 377 Kbps
Nominal bit rate : 7 800 Kbps
Width : 720 pixels
Height : 576 pixels
Display aspect ratio : 16:9
Frame rate : 25.000 fps
Standard : PAL
Color space : YUV
Chroma subsampling : 4:2:0
Bit depth : 8 bits
Scan type : Interlaced
Scan order : Bottom Field First
Compression mode : Lossy
Bits/(Pixel*Frame) : 0.615
Stream size : 888 MiB (87%)
Audio #1
ID : 128 (0x80)
Format : AC-3
Format/Info : Audio Coding 3
Mode extension : CM (complete main)
Duration : 19mn 27s
Bit rate mode : Constant
Bit rate : 448 Kbps
Channel(s) : 6 channels
Channel positions : Front: L C R, Side: L R, LFE
Sampling rate : 48.0 KHz
Bit depth : 16 bits
Compression mode : Lossy
Video delay : -384ms
Stream size : 62.4 MiB (6%)
Audio #2
ID : 129 (0x81)
Format : AC-3
Format/Info : Audio Coding 3
Mode extension : CM (complete main)
Duration : 19mn 27s
Bit rate mode : Constant
Bit rate : 192 Kbps
Channel(s) : 2 channels
Channel positions : Front: L R
Sampling rate : 48.0 KHz
Bit depth : 16 bits
Compression mode : Lossy
Video delay : -288ms
Stream size : 26.7 MiB (3%)
Audio #3
ID : 130 (0x82)
Format : AC-3
Format/Info : Audio Coding 3
Mode extension : CM (complete main)
Duration : 19mn 27s
Bit rate mode : Constant
Bit rate : 192 Kbps
Channel(s) : 2 channels
Channel positions : Front: L R
Sampling rate : 48.0 KHz
Bit depth : 16 bits
Compression mode : Lossy
Video delay : -288ms
Stream size : 26.7 MiB (3%)
Menu
General
Complete name : D:\Мои релизы\Den utvalde [DVD9]\VIDEO_TS\VTS_16_5.VOB
Format : MPEG-PS
File size : 1 024 MiB
Duration : 20mn 7s
Overall bit rate : 7 112 Kbps
Video
ID : 224 (0xE0)
Format : MPEG Video
Format version : Version 2
Format profile : Main@Main
Format settings, BVOP : Yes
Format settings, Matrix : Default
Format settings, GOP : M=3, N=12
Duration : 20mn 7s
Bit rate mode : Variable
Bit rate : 6 139 Kbps
Nominal bit rate : 7 800 Kbps
Width : 720 pixels
Height : 576 pixels
Display aspect ratio : 16:9
Frame rate : 25.000 fps
Standard : PAL
Color space : YUV
Chroma subsampling : 4:2:0
Bit depth : 8 bits
Scan type : Interlaced
Scan order : Bottom Field First
Compression mode : Lossy
Bits/(Pixel*Frame) : 0.592
Stream size : 884 MiB (86%)
Audio #1
ID : 128 (0x80)
Format : AC-3
Format/Info : Audio Coding 3
Mode extension : CM (complete main)
Duration : 20mn 7s
Bit rate mode : Constant
Bit rate : 448 Kbps
Channel(s) : 6 channels
Channel positions : Front: L C R, Side: L R, LFE
Sampling rate : 48.0 KHz
Bit depth : 16 bits
Compression mode : Lossy
Video delay : -416ms
Stream size : 64.5 MiB (6%)
Audio #2
ID : 129 (0x81)
Format : AC-3
Format/Info : Audio Coding 3
Mode extension : CM (complete main)
Duration : 20mn 7s
Bit rate mode : Constant
Bit rate : 192 Kbps
Channel(s) : 2 channels
Channel positions : Front: L R
Sampling rate : 48.0 KHz
Bit depth : 16 bits
Compression mode : Lossy
Video delay : -352ms
Stream size : 27.6 MiB (3%)
Audio #3
ID : 130 (0x82)
Format : AC-3
Format/Info : Audio Coding 3
Mode extension : CM (complete main)
Duration : 20mn 7s
Bit rate mode : Constant
Bit rate : 192 Kbps
Channel(s) : 2 channels
Channel positions : Front: L R
Sampling rate : 48.0 KHz
Bit depth : 16 bits
Compression mode : Lossy
Video delay : -352ms
Stream size : 27.6 MiB (3%)
Menu
General
Complete name : D:\Мои релизы\Den utvalde [DVD9]\VIDEO_TS\VTS_16_6.VOB
Format : MPEG-PS
File size : 32.3 MiB
Duration : 1mn 10s
Overall bit rate : 3 823 Kbps
Video
ID : 224 (0xE0)
Format : MPEG Video
Format version : Version 2
Format profile : Main@Main
Format settings, BVOP : Yes
Format settings, Matrix : Default
Format settings, GOP : M=3, N=12
Duration : 1mn 10s
Bit rate mode : Variable
Bit rate : 2 915 Kbps
Nominal bit rate : 7 800 Kbps
Width : 720 pixels
Height : 576 pixels
Display aspect ratio : 16:9
Frame rate : 25.000 fps
Standard : PAL
Color space : YUV
Chroma subsampling : 4:2:0
Bit depth : 8 bits
Scan type : Interlaced
Scan order : Bottom Field First
Compression mode : Lossy
Bits/(Pixel*Frame) : 0.281
Stream size : 24.6 MiB (76%)
Audio #1
ID : 128 (0x80)
Format : AC-3
Format/Info : Audio Coding 3
Mode extension : CM (complete main)
Duration : 1mn 6s
Bit rate mode : Constant
Bit rate : 448 Kbps
Channel(s) : 6 channels
Channel positions : Front: L C R, Side: L R, LFE
Sampling rate : 48.0 KHz
Bit depth : 16 bits
Compression mode : Lossy
Video delay : -320ms
Stream size : 3.53 MiB (11%)
Audio #2
ID : 129 (0x81)
Format : AC-3
Format/Info : Audio Coding 3
Mode extension : CM (complete main)
Duration : 1mn 10s
Bit rate mode : Constant
Bit rate : 192 Kbps
Channel(s) : 2 channels
Channel positions : Front: L R
Sampling rate : 48.0 KHz
Bit depth : 16 bits
Compression mode : Lossy
Video delay : -288ms
Stream size : 1.62 MiB (5%)
Audio #3
ID : 130 (0x82)
Format : AC-3
Format/Info : Audio Coding 3
Mode extension : CM (complete main)
Duration : 1mn 8s
Bit rate mode : Constant
Bit rate : 192 Kbps
Channel(s) : 2 channels
Channel positions : Front: L R
Sampling rate : 48.0 KHz
Bit depth : 16 bits
Compression mode : Lossy
Video delay : -288ms
Stream size : 1.57 MiB (5%)
Menu
General
Complete name : D:\Мои релизы\Den utvalde [DVD9]\VIDEO_TS\VTS_17_0.BUP
Format : DVD Video
Format profile : Program
File size : 14.0 KiB
Duration : 480ms
Overall bit rate : 239 Kbps
Video
ID : 224 (0xE0)
Format : MPEG Video
Format version : Version 2
Duration : 480ms
Bit rate mode : Variable
Width : 720 pixels
Height : 576 pixels
Display aspect ratio : 4:3
Frame rate : 25.000 fps
Standard : PAL
Compression mode : Lossy
Menu
Duration : 480ms
00:00:00.000 : Chapter 1
General
Complete name : D:\Мои релизы\Den utvalde [DVD9]\VIDEO_TS\VTS_17_0.IFO
Format : DVD Video
Format profile : Program
File size : 14.0 KiB
Duration : 480ms
Overall bit rate : 239 Kbps
Video
ID : 224 (0xE0)
Format : MPEG Video
Format version : Version 2
Duration : 480ms
Bit rate mode : Variable
Width : 720 pixels
Height : 576 pixels
Display aspect ratio : 4:3
Frame rate : 25.000 fps
Standard : PAL
Compression mode : Lossy
Menu
Duration : 480ms
00:00:00.000 : Chapter 1
General
Complete name : D:\Мои релизы\Den utvalde [DVD9]\VIDEO_TS\VTS_17_1.VOB
Format : MPEG-PS
File size : 10.0 KiB
Duration : 40ms
Overall bit rate : 2 048 Kbps
Video
ID : 224 (0xE0)
Format : MPEG Video
Format version : Version 2
Format profile : Main@Main
Format settings, BVOP : No
Format settings, Matrix : Default
Duration : 40ms
Bit rate mode : Constant
Bit rate : 8 000 Kbps
Width : 720 pixels
Height : 576 pixels
Display aspect ratio : 16:9
Frame rate : 25.000 fps
Standard : PAL
Color space : YUV
Chroma subsampling : 4:2:0
Bit depth : 8 bits
Scan type : Progressive
Scan order : Top Field First
Compression mode : Lossy
Bits/(Pixel*Frame) : 0.772
Stream size : 39.1 KiB
Menu

Скриншоты меню

Скриншоты

Скриншоты доп. материалов

[Profile]  [PM] 
Display posts:    
Reply to topic

Current time is: 17-Apr 04:21

All times are UTC + 2



You cannot post new topics in this forum
You cannot reply to topics in this forum
You cannot edit your posts in this forum
You cannot delete your posts in this forum
You cannot vote in polls in this forum
You cannot attach files in this forum
You cannot download files in this forum