На правильном пути / Право выбора / Right of Way (Джордж Шефер / George Schaefer) [1983, США, драма, DVD9 (Custom)] [4:3 PAL R2] VO (minyaev) + Sub Rus (minyaev) Spa + Original Eng + DUB Spa, Cat

Reply to topic
 
Author
Message

Faust ®

Gender: Unknown

Longevity: 9 years 6 months

Posts: 14946

Reputation: 0 [+] [-]

Faust · Post 26-Jun-2014 00:20

[Quote] 

На правильном пути / Право выбора / Right of Way
4:3 PAL R2
Страна: США
Студия: HBO Premiere Films, Post-Newsweek Television, Schaefer/Karpf Productions
Жанр: драма
Год выпуска: 1983
Продолжительность: 01:46:23
Перевод: Одноголосый закадровый - minyaev
Cубтитры: Русские(minyaev), испанские
Оригинальная аудиодорожка: английский
Режиссер: Джордж Шефер / George Schaefer
В ролях: Бетт Дэвис, Джеймс Стюарт, Мелинда Диллон, Присцилла Моррилл, Джон Харкинс, Жак Линн Колтон, Луис Шефер, Чарльз Уолкер, Исмаэль ’Ист’ Карло, Эдит Филдс ...
Описание: Время стремительно и бесконечно, а человеческая жизнь это лишь мгновенная и яркая вспышка в этом неумолимом потоке. И за секунду до угасания вспышки, есть ли у человека право выбора того, когда и как погаснет его свет?... Фильм о родителях и детях, и вечных ценностях.
Доп. информация: Диск собран из Right of Way_1983_DVD9 R2 найденного в сети. (Который на постере)
Бонусы: Фильмографии.
Меню: Статичное, озвученное, на испанском.
Меню неотредактировано, переключение звук. дорожек и субтитров с пульта.
Фильм автоматический стартует с рус. звук. дорожкой.
--Спасибо за рус. одноголосый и субтитры alicz
-- --Right of Way_1983_DVD9 R2_Sample_.rar-
-

Точка перехода на второй слой


-
-Тип релиза: DVD9 (Custom)
Контейнер: DVD-Video
Видео: PAL 4:3 (720x576) VBR, ~ 8527.22 kbps avg
Аудио 1: Espanol, AC3, 2/0 (L,R) ch, 192 kbps, Delay 0 mSec
Аудио 2: Catalan, AC3, 2/0 (L,R) ch, 192 kbps, Delay 0 mSec
Аудио 3: English, AC3, 2/0 (L,R) ch, 192 kbps, Delay 0 mSec
Аудио 4: Russian, AC3, 2/0 (L,R) ch, 192 kbps, Delay 0 mSec
Формат субтитров: prerendered (DVD/IDX+SUB)

MediaInfo

General
Complete name : Right of Way_1983_DVD9 R2\VIDEO_TS\VTS_02_2.VOB
Format : MPEG-PS
File size : 1 024 MiB
Duration : 16mn 17s
Overall bit rate mode : Variable
Overall bit rate : 8 783 Kbps
Video
ID : 224 (0xE0)
Format : MPEG Video
Format version : Version 2
Format profile : Main@Main
Format settings, BVOP : Yes
Format settings, Matrix : Default
Format settings, GOP : M=3, N=12
Duration : 16mn 17s
Bit rate mode : Variable
Bit rate : 7 841 Kbps
Maximum bit rate : 9 000 Kbps
Width : 720 pixels
Height : 576 pixels
Display aspect ratio : 4:3
Frame rate : 25.000 fps
Standard : PAL
Color space : YUV
Chroma subsampling : 4:2:0
Bit depth : 8 bits
Scan type : Interlaced
Scan order : Top Field First
Compression mode : Lossy
Bits/(Pixel*Frame) : 0.756
Time code of first frame : 00:17:04:20
Time code source : Group of pictures header
Stream size : 914 MiB (89%)
Audio #1
ID : 189 (0xBD)-128 (0x80)
Format : AC-3
Format/Info : Audio Coding 3
Mode extension : CM (complete main)
Format settings, Endianness : Big
Muxing mode : DVD-Video
Duration : 16mn 17s
Bit rate mode : Constant
Bit rate : 192 Kbps
Channel(s) : 2 channels
Channel positions : Front: L R
Sampling rate : 48.0 KHz
Bit depth : 16 bits
Compression mode : Lossy
Delay relative to video : -560ms
Stream size : 22.4 MiB (2%)
Audio #2
ID : 189 (0xBD)-129 (0x81)
Format : AC-3
Format/Info : Audio Coding 3
Mode extension : CM (complete main)
Format settings, Endianness : Big
Muxing mode : DVD-Video
Duration : 16mn 17s
Bit rate mode : Constant
Bit rate : 192 Kbps
Channel(s) : 2 channels
Channel positions : Front: L R
Sampling rate : 48.0 KHz
Bit depth : 16 bits
Compression mode : Lossy
Delay relative to video : -560ms
Stream size : 22.4 MiB (2%)
Audio #3
ID : 189 (0xBD)-130 (0x82)
Format : AC-3
Format/Info : Audio Coding 3
Mode extension : CM (complete main)
Format settings, Endianness : Big
Muxing mode : DVD-Video
Duration : 16mn 17s
Bit rate mode : Constant
Bit rate : 192 Kbps
Channel(s) : 2 channels
Channel positions : Front: L R
Sampling rate : 48.0 KHz
Bit depth : 16 bits
Compression mode : Lossy
Delay relative to video : -560ms
Stream size : 22.4 MiB (2%)
Audio #4
ID : 189 (0xBD)-131 (0x83)
Format : AC-3
Format/Info : Audio Coding 3
Mode extension : CM (complete main)
Format settings, Endianness : Big
Muxing mode : DVD-Video
Duration : 16mn 17s
Bit rate mode : Constant
Bit rate : 192 Kbps
Channel(s) : 2 channels
Channel positions : Front: L R
Sampling rate : 48.0 KHz
Bit depth : 16 bits
Compression mode : Lossy
Delay relative to video : -560ms
Stream size : 22.4 MiB (2%)
Text #1
ID : 189 (0xBD)-32 (0x20)
Format : RLE
Format/Info : Run-length encoding
Muxing mode : DVD-Video
Duration : 16mn 16s
Delay relative to video : 40ms
Text #2
ID : 189 (0xBD)-33 (0x21)
Format : RLE
Format/Info : Run-length encoding
Muxing mode : DVD-Video
Duration : 16mn 16s
Delay relative to video : 40ms
Menu

DVD Info

Title: Right of Way_1983_DVD9 R2
Size: 6.35 Gb ( 6 655 434,00 KBytes ) - DVD-9
Enabled regions: 1, 2, 3, 4, 5, 6, 7, 8
VTS_01 :
Play Length: 00:00:11
Video: PAL 16:9 (720x576) VBR, Auto Letterboxed
Audio:
Not specified (Dolby AC3, 2 ch)
VTS_02 :
Play Length: 01:46:23
Video: PAL 4:3 (720x576) VBR
Audio:
Espanol, AC3, 2/0 (L,R) ch, 192 kbps, Delay 0 mSec
Catalan, AC3, 2/0 (L,R) ch, 192 kbps, Delay 0 mSec
English, AC3, 2/0 (L,R) ch, 192 kbps, Delay 0 mSec
Russian, AC3, 2/0 (L,R) ch, 192 kbps, Delay 0 mSec
Subtitles:
Espanol
Russian
* Menus Information *
VIDEO_TS Menu
Video:
PAL 4:3 (720x576) VBR
English Language Unit :
Title Menu
VTS_01 Menu
Video:
PAL 4:3 (720x576) VBR
English Language Unit :
Root Menu
VTS_02 Menu
Video:
PAL 4:3 (720x576) VBR
Audio:
Not specified (Dolby AC3, 2 ch)
English Language Unit :
Root Menu

П. О.

PgcDemux 1.2.0.5 - разделение компонентов диска на файлы;
BeSweetv1.5b31+BeLight 0.21 - AC3 -> Wav
Sound Forge pro 10 - Wav -> AC3
MaestroSBT-Unicode-2.6.2.1 - Создание субтитров
DVDSubEdit -- Version 1.52 - Правка (цветовых схем) субтитров
MuxMan DVD authoring Professional 1.4.4 - мультиплексирование и авторинг DVD;
DVDRemake Pro 3.6.4 - реавторинг DVD;
DVD Shrink 3.2 - Сэмпл
VLC - Скриншоты-
-
-

-
-
-BeSweet v1.5b31 by DSPguru.
--------------------------
Using azid.dll v1.9 (b922) by Midas (midas@egon.gyaloglo.hu).
Logging start : 06/24/14 , 09:28:24.
BeSweet.exe -core( -input C:\Temp\Right\AudioFile_82.ac3 -output C:\Temp\Right\AudioFile_82.wav -2ch -logfile C:\Temp\Right\AudioFile_82.log ) -azid( -s mono -c normal -L -3db )
[00:00:00:000] +------- BeSweet -----
[00:00:00:000] | Input : C:\Temp\Right\AudioFile_82.ac3
[00:00:00:000] | Output: C:\Temp\Right\AudioFile_82.wav
[00:00:00:000] | Floating-Point Process: No
[00:00:00:000] +-------- AZID -------
[00:00:00:000] | Input Channels Mode: 2/0, Bitrate: 192kbps
[00:00:00:000] | Output Stereo mode: Dolby surround 2 compatible
[00:00:00:000] | Total Gain: 0.000dB, Compression: Normal
[00:00:00:000] | LFE levels: To LR -3.0dB, To LFE 0.0dB
[00:00:00:000] | Center mix level: BSI
[00:00:00:000] | Surround mix level: BSI
[00:00:00:000] | Dialog normalization: No
[00:00:00:000] | Rear channels filtering: No
[00:00:00:000] | Source Sample-Rate: 48.0KHz
[00:00:00:000] +---------------------
[01:46:23:488] Conversion Completed !
[01:46:23:488] Actual Avg. Bitrate : 190kbps
[00:02:21:000]
[Profile]  [PM] 
Display posts:    
Reply to topic

Current time is: 12-Apr 05:51

All times are UTC + 2



You cannot post new topics in this forum
You cannot reply to topics in this forum
You cannot edit your posts in this forum
You cannot delete your posts in this forum
You cannot vote in polls in this forum
You cannot attach files in this forum
You cannot download files in this forum