Xoлocтячки v Beгace / Веst Night Еvеr (Dжeйcoн Фрид6eрг, Aaрoн 3eльцeр / Jаsоn Friеdbеrg, Ааrоn Sеltzеr) [2013, США, комедия, DVD5] R5 MVO + Sub Ukr

Reply to topic
 
Author
Message

Faust ®

Gender: Unknown

Longevity: 9 years 6 months

Posts: 14955

Reputation: 0 [+] [-]

Faust · Post 02-Jul-2014 00:20

[Quote] 

-Холостячки в Вегасе / Best Night Ever-«Похмелье – это еще «цветочки»» -Страна: США
Жанр: комедия
Год выпуска: 2013
Мировая премьера: 26 декабря 2013
Российская премьера: 16 января 2014, «Top Film Distribution»
Украинская премьера: 6 февраля 2014, «TFD Film Ukraine»
Дата выхода DVD: 25 марта 2014, «Lizard Cinema Trade»,
Продолжительность: 01:18:36
Перевод: Профессиональный (многоголосый закадровый) [Лицензия]
Cубтитры: украинские
Оригинальная аудиодорожка: нет-Режиссер: Джейсон Фридберг, Аарон Зельцер / Jason Friedberg, Aaron Seltzer-В ролях: Дезри Холл, Саманта Колберн, Эдвина Ричард, Криста Флэнеган, Кристиан Барильяс, Джейсон Бобьен, Гайл Бранко, Хантер Драго, Мэтт Драго, Энди Фавро-Описание: Перед тем как выйти замуж, молодая красотка отправляется с тремя лучшими подружками на свою последнюю холостяцкую вечеринку в Лас-Вегас. Все, что ни случается, к лучшему — гласит народная мудрость. Неужели это так, даже если все сумасшествие, происходящее в Лас-Вегасе, будет записано на видео?..-Бонусы: нет- -Качество: DVD5 R5
Формат: DVD-Video
Видео кодек: MPEG2
Аудио кодек: AC3
Видео: PAL 16:9 (720x576(0.572)) MPEG Video, 25,000 кадр/сек, 5926 Кбит/сек
Аудио: Russian (Dolby AC3, 6 ch) 448 Кбит/сек, 48,0 КГц--

DVDInfo

Title: Holostjachki.v.Vegase.2013.D.DVD5
Size: 3.35 Gb ( 3 509 586,00 KBytes ) - DVD-5
Enabled regions: 1, 2, 3, 4, 5, 6, 7, 8
VTS_01 :
Play Length: 01:18:36
Video: PAL 16:9 (720x576) VBR, Auto Letterboxed
Audio:
Russian (Dolby AC3, 6 ch)
Subtitles:
Ukrainian
VTS_02 :
Play Length: 00:00:08
Video: PAL 4:3 (720x576) VBR
VTS_03 :
Play Length: 00:00:21
Video: PAL 16:9 (720x576) VBR, Auto Letterboxed
Audio:
English (Dolby AC3, 2 ch)
* Menus Information *
VIDEO_TS Menu
Video:
NTSC 4:3 (720x480) VBR
Auto Pan&Scan, Auto Letterboxed
Russian Language Unit :
Title Menu
VTS_01 Menu
Video:
PAL 16:9 (720x576) VBR
Auto Letterboxed
Russian Language Unit :
Root Menu
Subpicture Menu
Chapter (PTT) Menu
VTS_02 Menu
Video:
NTSC 4:3 (720x480) VBR
Auto Pan&Scan, Auto Letterboxed
Language Unit :
Subpicture Menu
Angle menu
Language Unit :
Language Unit :
Subpicture Menu
Chapter (PTT) Menu
Language Unit :
Language Unit :
Subpicture Menu
Chapter (PTT) Menu
VTS_03 Menu
Video:
NTSC 4:3 (720x480) VBR
Auto Pan&Scan, Auto Letterboxed
Language Unit :
Subpicture Menu
Angle menu
Language Unit :
Subpicture Menu
Angle menu
Language Unit :
Subpicture Menu
Angle menu
Language Unit :
Subpicture Menu
Angle menu
Language Unit :
Subpicture Menu
Angle menu

MediaInfo

Общее
Полное имя : D:\Новинки 2014\Holostjachki.v.Vegase.2013.D.DVD5\VIDEO_TS\VTS_01_1.VOB
Формат : MPEG-PS
Размер файла : 1024 Мбайт
Продолжительность : 22 м.
Режим общего битрейта : Переменный
Общий поток : 6503 Кбит/сек
Видео
Идентификатор : 224 (0xE0)
Формат : MPEG Video
Версия формата : Version 2
Профиль формата : Main@Main
Параметр BVOP формата : Да
Параметр матрицы формата : Выборочная
Параметр GOP формата : Variable
Продолжительность : 22 м.
Вид битрейта : Переменный
Битрейт : 5926 Кбит/сек
Максимальный битрейт : 8000 Кбит/сек
Ширина : 720 пикселей
Высота : 576 пикселей
Соотношение сторон : 16:9
Частота кадров : 25,000 кадров/сек
Стандарт вещания : PAL
Цветовое пространство : YUV
Субдискретизация насыщенности : 4:2:0
Битовая глубина : 8 бит
Тип развёртки : Чересстрочная
Порядок развёртки : Верхнее поле первое
Метод сжатия : С потерями
Бит/(Пиксели*Кадры) : 0.572
Временной код первого кадра : 00:00:00:00
Оригинал временного кода : Group of pictures header
Размер потока : 933 Мбайт (91%)
Аудио
Идентификатор : 189 (0xBD)-128 (0x80)
Формат : AC-3
Формат/Информация : Audio Coding 3
Расширение режима : CM (complete main)
Параметр Endianness формата : Big
Режим смешивания : DVD-Video
Продолжительность : 22 м.
Вид битрейта : Постоянный
Битрейт : 448 Кбит/сек
Каналы : 6 каналов
Расположение каналов : Front: L C R, Side: L R, LFE
Частота : 48,0 КГц
Битовая глубина : 16 бит
Метод сжатия : С потерями
Размер потока : 70,5 Мбайт (7%)
Текст
Идентификатор : 189 (0xBD)-32 (0x20)
Формат : RLE
Формат/Информация : Run-length encoding
Режим смешивания : DVD-Video

Скриншоты меню

Скриншоты фильма


-
-Раздача от группы:
[Profile]  [PM] 
Display posts:    
Reply to topic

Current time is: 14-Apr 01:12

All times are UTC + 2



You cannot post new topics in this forum
You cannot reply to topics in this forum
You cannot edit your posts in this forum
You cannot delete your posts in this forum
You cannot vote in polls in this forum
You cannot attach files in this forum
You cannot download files in this forum