Anжeликa, maркизa anгeлoв / Аngеliquе, mаrquisе dеs аngеs (Arиэль 3eйтун / Аriуl Zеitоun) [2013, Франция, мелодрама, приключения, DVD9] R5 Dub + Sub Rus + Original Fre

Reply to topic
 
Author
Message

Faust ®

Gender: Unknown

Longevity: 9 years 6 months

Posts: 14969

Reputation: 0 [+] [-]

Faust · Post 02-Jul-2014 00:20

[Quote] 

-Анжелика, маркиза ангелов / Angélique, marquise des anges -Страна: Франция
Студия: Österreichischer Rundfunk (ORF), A Plus Image 4, A.J.O.Z. Films, BNP Paribas Fortis Film Fund, Canal+ [fr], Ciné, Cinémage 7, Climax Films, EuropaCorp, FernsehfilmfГ¶rderungsfond des RTR GmbH Austria, France 3 Cinéma, France Télévisions, Hoche Artois Images, Institut pour le Financement du CinГ©ma et des Industries Culturelles (IFCIC), La Wallonie, Land Niederösterreich, Mona Film, Natixis Coficiné, Wilma Film
Жанр: мелодрама, приключения
Год выпуска: 2013
Мировая премьера: 18 декабря 2013
Российская премьера: 9 января 2014, «Вольга»
Дата выхода DVD: 27 февраля 2014, «Вольга»
Продолжительность: 01:48:06
Перевод: Профессиональный (дублированный) [Лицензия]
Cубтитры: русские
Оригинальная аудиодорожка: французский-Режиссер: Ариэль Зейтун / Ariel Zeitoun-В ролях: Нора Арнезедер, Жерар Ланвен, Томер Сисле, Симон Абкарян, Давид Кросс, Мэтью Бужена, Мигель Херц-Кестранек, Юлиан Вайгенд, Райнер Фриб, Флоренс Косте...-Описание: Франция XVII века. Юную красавицу Анжелику выдают замуж за графа де Пейрака, обладающего огромным состоянием и слывущего «колдуном». Поначалу Анжелика ненавидит мужа, но постепенно начинает понимать, что за суровой внешностью скрывается обаятельным, добрый, чуткий и справедливый мужчина. Между супругами вспыхивает настоящая любовь, но идиллия оказывается недолгой.
Короля Людовика XIV, проездом посетившего замок Де Пейрака, начинает терзать зависть к семейному счастью и богатству своего подданного. Де Пейрак заточен в Бастилию и ждет казни. Но Анжелика готова биться за свою любовь до последнего вздоха. Но помощь энергичной и независимой красавице приходит давно влюбленный в нее Николя — предводитель парижских разбойников.
-Бонусы: Интервью- -Релиз группы: -Качество: DVD9 R5
Формат: DVD-Video
Видео кодек: MPEG2
Аудио кодек: AC3 + DTS
Видео: PAL 16:9 (720x576(0.551)) MPEG Video, 25,000 кадр/сек, 5710 Кбит/сек
Аудио #1: Russian (Dolby AC3, 6 ch) 256 Кбит/сек, 48,0 КГц
Аудио #2: Russian (DTS, 6 ch) 768 Кбит/сек, 48,0 КГц
Аудио #3: French (Dolby AC3, 6 ch) 256 Кбит/сек, 48,0 КГц--

DVDInfo

Title: Anzhelika.markiza.angelov.2013.DVD9
Size: 6.46 Gb ( 6 777 762,00 KBytes ) - DVD-9
Enabled regions: 1, 2, 3, 4, 5, 6, 7, 8
VTS_01 :
Play Length: 00:00:10
Video: PAL 16:9 (720x576) VBR, Auto Pan&Scan, Auto Letterboxed
VTS_02 :
Play Length: 00:00:06
Video: PAL 16:9 (720x576) VBR, Auto Pan&Scan, Auto Letterboxed
VTS_03 :
Play Length: 01:48:06
Video: PAL 16:9 (720x576) VBR, Auto Pan&Scan, Auto Letterboxed
Audio:
Not specified (Dolby AC3, 6 ch)
Not specified (DTS, 6 ch)
Not specified (Dolby AC3, 6 ch)
Subtitles:
Not specified
Not specified
Not specified
Not specified
Not specified
Not specified
Not specified
Not specified
Not specified
Not specified
Not specified
Not specified
Not specified
Not specified
VTS_04 :
Play Length: 00:00:05
Video: PAL 16:9 (720x576) VBR, Auto Pan&Scan, Auto Letterboxed
Audio:
Not specified (Dolby AC3, 6 ch)
Not specified (Dolby AC3, 6 ch)
Not specified (Dolby AC3, 6 ch)
Subtitles:
Not specified
Not specified
Not specified
VTS_05 :
Play Length: 00:29:13
Video: PAL 16:9 (720x576) VBR, Auto Pan&Scan, Auto Letterboxed
Audio:
Not specified (Dolby AC3, 2 ch)
Not specified (Dolby AC3, 2 ch)
Not specified (Dolby AC3, 2 ch)
Subtitles:
Not specified
Not specified
Not specified
* Menus Information *
VIDEO_TS Menu
Video:
PAL 16:9 (720x576) VBR
Auto Pan&Scan, Auto Letterboxed
English Language Unit :
Title Menu
VTS_01 Menu
Video:
PAL 16:9 (720x576) VBR
Auto Pan&Scan, Auto Letterboxed
Audio:
Not specified (Dolby AC3, 6 ch)
English Language Unit :
Root Menu
VTS_02 Menu
Video:
PAL 4:3 (720x576) VBR
English Language Unit :
Root Menu
VTS_03 Menu
Video:
PAL 4:3 (720x576) VBR
English Language Unit :
Root Menu
VTS_04 Menu
Video:
PAL 4:3 (720x576) VBR
English Language Unit :
Root Menu
VTS_05 Menu
Video:
PAL 4:3 (720x576) VBR
English Language Unit :
Root Menu

MediaInfo

Общее
Полное имя : K:\Новинки 2013\Anzhelika.markiza.angelov .2013.DVD9\VIDEO_TS\VTS_03_2.VOB
Формат : MPEG-PS
Размер файла : 1024 Мбайт
Продолжительность : 20 м.
Режим общего битрейта : Переменный
Общий поток : 7118 Кбит/сек
Видео
Идентификатор : 224 (0xE0)
Формат : MPEG Video
Версия формата : Version 2
Профиль формата : Main@Main
Параметр BVOP формата : Да
Параметр матрицы формата : Выборочная
Параметр GOP формата : M=3, N=15
Продолжительность : 20 м.
Вид битрейта : Переменный
Битрейт : 5710 Кбит/сек
Максимальный битрейт : 8300 Кбит/сек
Ширина : 720 пикселей
Высота : 576 пикселей
Соотношение сторон : 16:9
Частота кадров : 25,000 кадров/сек
Стандарт вещания : PAL
Цветовое пространство : YUV
Субдискретизация насыщенности : 4:2:0
Битовая глубина : 8 бит
Тип развёртки : Чересстрочная
Порядок развёртки : Верхнее поле первое
Метод сжатия : С потерями
Бит/(Пиксели*Кадры) : 0.551
Временной код первого кадра : 00:20:45:14
Оригинал временного кода : Group of pictures header
Размер потока : 821 Мбайт (80%)
Аудио #1
Идентификатор : 189 (0xBD)-128 (0x80)
Формат : AC-3
Формат/Информация : Audio Coding 3
Расширение режима : CM (complete main)
Параметр Endianness формата : Big
Режим смешивания : DVD-Video
Продолжительность : 20 м.
Вид битрейта : Постоянный
Битрейт : 256 Кбит/сек
Каналы : 6 каналов
Расположение каналов : Front: L C R, Side: L R, LFE
Частота : 48,0 КГц
Битовая глубина : 16 бит
Метод сжатия : С потерями
Задержка видео : -728 мс.
Размер потока : 36,8 Мбайт (4%)
Аудио #2
Идентификатор : 189 (0xBD)-130 (0x82)
Формат : AC-3
Формат/Информация : Audio Coding 3
Расширение режима : CM (complete main)
Параметр Endianness формата : Big
Режим смешивания : DVD-Video
Продолжительность : 20 м.
Вид битрейта : Постоянный
Битрейт : 256 Кбит/сек
Каналы : 6 каналов
Расположение каналов : Front: L C R, Side: L R, LFE
Частота : 48,0 КГц
Битовая глубина : 16 бит
Метод сжатия : С потерями
Задержка видео : -728 мс.
Размер потока : 36,8 Мбайт (4%)
Аудио #3
Идентификатор : 189 (0xBD)-137 (0x89)
Формат : DTS
Формат/Информация : Digital Theater Systems
Режим : 16
Параметр Endianness формата : Big
Режим смешивания : DVD-Video
Продолжительность : 20 м.
Вид битрейта : Постоянный
Битрейт : 755 Кбит/сек
Каналы : 6 каналов
Расположение каналов : Front: L C R, Side: L R, LFE
Частота : 48,0 КГц
Битовая глубина : 16 бит
Метод сжатия : С потерями
Задержка видео : -824 мс.
Размер потока : 109 Мбайт (11%)
Текст
Идентификатор : 189 (0xBD)-45 (0x2D)
Формат : RLE
Формат/Информация : Run-length encoding
Режим смешивания : DVD-Video
Продолжительность : 20 м.
Задержка видео : 2 с. 40 мс.

Скриншоты меню

Скриншоты фильма

Скриншоты доп. материалов


-
-Раздача от группы:
[Profile]  [PM] 
Display posts:    
Reply to topic

Current time is: 17-Apr 05:19

All times are UTC + 2



You cannot post new topics in this forum
You cannot reply to topics in this forum
You cannot edit your posts in this forum
You cannot delete your posts in this forum
You cannot vote in polls in this forum
You cannot attach files in this forum
You cannot download files in this forum