Карты на стол / Cartes sur table / Attack of the Robots (Хесус Франко / Jesús (Jesus) Franco, (J. Franco)) [1966, Франция, Испания, фантастика, комедия, DVD9 (Custom)] [4:3 PAL R2] VO (Horror Maker) + Sub Fre Eng + Original Fre

Reply to topic
 
Author
Message

Faust ®

Gender: Unknown

Longevity: 9 years 6 months

Posts: 14955

Reputation: 0 [+] [-]

Faust · Post 16-Jul-2014 00:20

[Quote] 

Карты на стол / Cartes sur table / Attack of the Robots
4:3 PAL R2
Страна: Франция, Испания
Студия: Spéva Films, Ciné-Alliance, Hesperia Films S.A.
Жанр: фантастика, комедия
Год выпуска: 1966
Продолжительность: 01:29:04
Перевод: Одноголосый закадровый - Horror Maker
Cубтитры: французские[Для слабослышащих], английские(aloysius70, suckmysound -- CINEMAGGEDON)
Оригинальная аудиодорожка: французский
Режиссер: Хесус Франко / Jesús (Jesus) Franco, (J. Franco)
В ролях: Эдди Константин, Франсуаз Брион, Фернандо Рей, Мара Ласо, Дина Лой, Айда Пауэр, Лемми Константин, Альфредо Майо, Марсело Арройта-Яурегуй, Висенте Рока ...
Описание: Находящийся в отставке секретный агент Эл Петерсон вновь получает задание расследовать цепь исчезновений по всему миру людей с нулевым резусом крови. Одна из жертв обнаружена на пляже в испанском городе Аликанте. Петерсон прибывает туда в качестве ничего не подозревающей наживки для похитителей. За ним начинают следить агенты китайских спецслужб, которые хотят использовать его в качестве приманки для секретной группы политиков, ученых и финансистов. Петерсон узнает, что эта группа, стремящаяся к мировому господству, использует армию убийц-роботов, запрограммированных на полное подчинение и управляемых с помощью радиоволн через электронные приспособления, вмонтированные в солнцезащитные очки. Петерсону удается с помощью китайцев пробраться на приморскую виллу, которая является штаб-квартирой главы преступной группы.
Доп. информация: Диск собран из Cartes sur table_1966_DVD9 R2 найденного в сети. (Который на постере)
Меню: Статичное, неозвученное на французском.Меню неотредактировано, переключение звуковых дорожек и субтитров с пульта.
Фильм автоматический стартует с рус. звук. дорожкой.
--Спасибо за рус. одноголосый vsvs727
-- --Cartes sur table_1966_DVD9 R2_Sample_.rar-
-

Точка перехода на второй слой


-
-Тип релиза: DVD9 (Custom)
Контейнер: DVD-Video
Видео: PAL 4:3 (720x576) VBR, ~ 9505.43 kbps avg
Аудио 1: Russian, AC3, 2/0 (L,R) ch, 192 kbps, Delay 0 mSec
Аудио 2: Francais, AC3, 2/0 (L,R) ch, 192 kbps, Delay 0 mSec
Формат субтитров: prerendered (DVD/IDX+SUB)

MediaInfo

General
Complete name : Cartes sur table_1966_DVD9 R2\VIDEO_TS\VTS_01_3.VOB
Format : MPEG-PS
File size : 1 024 MiB
Duration : 15mn 3s
Overall bit rate mode : Variable
Overall bit rate : 9 503 Kbps
Video
ID : 224 (0xE0)
Format : MPEG Video
Format version : Version 2
Format profile : Main@Main
Format settings, BVOP : Yes
Format settings, Matrix : Default
Format settings, GOP : M=3, N=12
Duration : 15mn 3s
Bit rate mode : Variable
Bit rate : 8 930 Kbps
Maximum bit rate : 9 500 Kbps
Width : 720 pixels
Height : 576 pixels
Display aspect ratio : 4:3
Frame rate : 25.000 fps
Standard : PAL
Color space : YUV
Chroma subsampling : 4:2:0
Bit depth : 8 bits
Scan type : Interlaced
Scan order : Bottom Field First
Compression mode : Lossy
Bits/(Pixel*Frame) : 0.861
Time code of first frame : 00:29:46:24
Time code source : Group of pictures header
Stream size : 962 MiB (94%)
Audio #1
ID : 189 (0xBD)-128 (0x80)
Format : AC-3
Format/Info : Audio Coding 3
Mode extension : CM (complete main)
Format settings, Endianness : Big
Muxing mode : DVD-Video
Duration : 15mn 3s
Bit rate mode : Constant
Bit rate : 192 Kbps
Channel(s) : 2 channels
Channel positions : Front: L R
Sampling rate : 48.0 KHz
Bit depth : 16 bits
Compression mode : Lossy
Delay relative to video : -512ms
Stream size : 20.7 MiB (2%)
Audio #2
ID : 189 (0xBD)-129 (0x81)
Format : AC-3
Format/Info : Audio Coding 3
Mode extension : CM (complete main)
Format settings, Endianness : Big
Muxing mode : DVD-Video
Duration : 15mn 3s
Bit rate mode : Constant
Bit rate : 192 Kbps
Channel(s) : 2 channels
Channel positions : Front: L R
Sampling rate : 48.0 KHz
Bit depth : 16 bits
Compression mode : Lossy
Delay relative to video : -512ms
Stream size : 20.7 MiB (2%)
Text #1
ID : 189 (0xBD)-32 (0x20)
Format : RLE
Format/Info : Run-length encoding
Muxing mode : DVD-Video
Text #2
ID : 189 (0xBD)-33 (0x21)
Format : RLE
Format/Info : Run-length encoding
Muxing mode : DVD-Video
Menu

DVD Info

Title: Cartes sur table_1966_DVD9 R2
Size: 5.91 Gb ( 6 200 864,00 KBytes ) - DVD-9
Enabled regions: 1, 2, 3, 4, 5, 6, 7, 8
VTS_01 :
Play Length: 01:29:04
Video: PAL 4:3 (720x576) VBR
Audio:
Russian, AC3, 2/0 (L,R) ch, 192 kbps, Delay 0 mSec
Francais, AC3, 2/0 (L,R) ch, 192 kbps, Delay 0 mSec
Subtitles:
Francais
English
* Menus Information *
VIDEO_TS Menu
Video:
PAL 4:3 (720x576) VBR
Francais Language Unit :
Title Menu
VTS_01 Menu
Video:
PAL 4:3 (720x576) VBR
Francais Language Unit :
Root Menu

П. О.

PgcDemux 1.2.0.5 - разделение компонентов диска на файлы;
BeSweetv1.5b31+BeLight 0.21 - AC3 -> Wav
Sound Forge pro 10 - Wav -> AC3
MuxMan DVD authoring Professional 1.4.4 - мультиплексирование и авторинг DVD;
DVDRemake Pro 3.6.4 - реавторинг DVD;
DVD Shrink 3.2 - Сэмпл
VLC - Скриншоты-
-
-

-
-
-BeSweet v1.5b31 by DSPguru.
--------------------------
Using azid.dll v1.9 (b922) by Midas (midas@egon.gyaloglo.hu).
Logging start : 07/13/14 , 21:07:32.
BeSweet.exe -core( -input C:\Temp\KARTI\AudioFile_80.ac3 -output C:\Temp\KARTI\AudioFile_80.wav -2ch -logfile C:\Temp\KARTI\AudioFile_80.log ) -azid( -s mono -c normal -L -3db )
[00:00:00:000] +------- BeSweet -----
[00:00:00:000] | Input : C:\Temp\KARTI\AudioFile_80.ac3
[00:00:00:000] | Output: C:\Temp\KARTI\AudioFile_80.wav
[00:00:00:000] | Floating-Point Process: No
[00:00:00:000] +-------- AZID -------
[00:00:00:000] | Input Channels Mode: 2/0, Bitrate: 192kbps
[00:00:00:000] | Output Stereo mode: Dolby surround 2 compatible
[00:00:00:000] | Total Gain: 0.000dB, Compression: Normal
[00:00:00:000] | LFE levels: To LR -3.0dB, To LFE 0.0dB
[00:00:00:000] | Center mix level: BSI
[00:00:00:000] | Surround mix level: BSI
[00:00:00:000] | Dialog normalization: No
[00:00:00:000] | Rear channels filtering: No
[00:00:00:000] | Source Sample-Rate: 48.0KHz
[00:00:00:000] +---------------------
[01:29:04:064] Conversion Completed !
[01:29:04:064] Actual Avg. Bitrate : 732kbps
[00:01:01:000]
[Profile]  [PM] 
Display posts:    
Reply to topic

Current time is: 14-Apr 01:14

All times are UTC + 2



You cannot post new topics in this forum
You cannot reply to topics in this forum
You cannot edit your posts in this forum
You cannot delete your posts in this forum
You cannot vote in polls in this forum
You cannot attach files in this forum
You cannot download files in this forum