Клуб монстров / The Monster Club (Рой Уорд Бейкер / Roy Ward Baker) [1980, (1981), Великобритания, ужасы, комедия, DVD5 (Custom)] [4:3 PAL R2] AVO (Леонид Володарский) + Sub Ita + Original Eng + DUB Ita

Reply to topic
 
Author
Message

Faust ®

Gender: Unknown

Longevity: 9 years 6 months

Posts: 14961

Reputation: 0 [+] [-]

Faust · Post 23-Jul-2014 00:25

[Quote] 

Клуб монстров / The Monster Club
4:3 PAL R2
Страна: Великобритания
Студия: Chips Productions, Sword & Sorcery
Жанр: ужасы, комедия
Год выпуска: 1980 (1981)
Продолжительность: 01:33:47
Перевод: Авторский (одноголосый закадровый) - Леонид Володарский
Cубтитры: итальянские
Оригинальная аудиодорожка: английский
Режиссер: Рой Уорд Бейкер / Roy Ward Baker
В ролях: Винсент Прайс, Дональд Плезенс, Джон Кэрредин, Стюарт Уитман, Ричард Джонсон, Барбара Келлерман, Бритт Экланд, Саймон Уорд, Энтони Валентайн, Патрик Мэги ...
Описание: Писатель рассказов ужасов Рональд Четвинд-Хэйс приглашен вампиром Эрасмусом в Клуб монстров, где обитающие там чудовища рассказывают ему три истории.
Первая повествует о монстре по имени Рейвен, который на самом деле упырь Шедмок-результат кровосмешения между вампиром и оборотнем, живущий в отшельничестве из-за своего невероятного уродства. Он нанимает девушку Анжелу Джонс, чтобы она описала все его антикварные драгоценности. Во время работы Анжела влюбляется в Рейвена и соглашается выйти за него замуж. Но когда упырь узнает, что у девушки уже есть муж по имени Джордж, а она разыграла свою страсть, чтобы его ограбить, месть чудовища будет ужасной…
Во второй истории писатель Линтом Бутоски рассказывает о своем детстве, когда он не знал, что его отец-самый настоящий вампир, за которым охотятся специальные охотники на вампиров под руководством священника Скотланд-Ярда Пикеринга…
Последняя история рассказывает о режиссере фильмов ужасов Сэме, который ищет место для съемок своего нового фильма. Он находит деревушку, населенную самыми разнообразными упырями и монстрами, которые рады прибытию съемочной бригады, как источнику свежего человеческого мяса…
Доп. информация: Диск собран из The Monster Club_1980_DVD5 R2 найденного в сети. (Который на постере)
Бонусы: Фотогалерея.
Меню: Анимированное, озвученное, на итальянском.Меню неотредактировано, переключение звуковых дорожек с пульта.
Фильм автоматический стартует с рус. звук. дорожкой.
--Спасибо за рус. одноголосый Neronastik
-- --The Monster Club_1980_DVD5 R2_Sample_.rar--Тип релиза: DVD5 (Custom)
Контейнер: DVD-Video
Видео: PAL 4:3 (720x576) VBR, ~ 6369.45 kbps avg
Аудио 1: Russian, AC3, 2/0 (L,R) ch, 192 kbps, Delay 0 mSec
Аудио 2: English, AC3, 2/0 (L,R) ch, 192 kbps, Delay 0 mSec
Аудио 3: Italiano, AC3, 2/0 (L,R) ch, 192 kbps, Delay 0 mSec
Формат субтитров: prerendered (DVD/IDX+SUB)

MediaInfo

General
Complete name : The Monster Club_1980_DVD5 R2\VIDEO_TS\VTS_01_1.VOB
Format : MPEG-PS
File size : 1 024 MiB
Duration : 24mn 32s
Overall bit rate mode : Variable
Overall bit rate : 5 835 Kbps
Video
ID : 224 (0xE0)
Format : MPEG Video
Format version : Version 2
Format profile : Main@Main
Format settings, BVOP : Yes
Format settings, Matrix : Default
Format settings, GOP : M=3, N=12
Duration : 24mn 32s
Bit rate mode : Variable
Bit rate : 5 143 Kbps
Maximum bit rate : 9 800 Kbps
Width : 720 pixels
Height : 576 pixels
Display aspect ratio : 4:3
Frame rate : 25.000 fps
Standard : PAL
Color space : YUV
Chroma subsampling : 4:2:0
Bit depth : 8 bits
Scan type : Interlaced
Scan order : Top Field First
Compression mode : Lossy
Bits/(Pixel*Frame) : 0.496
Time code of first frame : 00:00:00:00
Time code source : Group of pictures header
Stream size : 903 MiB (88%)
Audio #1
ID : 189 (0xBD)-128 (0x80)
Format : AC-3
Format/Info : Audio Coding 3
Mode extension : CM (complete main)
Format settings, Endianness : Big
Muxing mode : DVD-Video
Duration : 24mn 31s
Bit rate mode : Constant
Bit rate : 192 Kbps
Channel(s) : 2 channels
Channel positions : Front: L R
Sampling rate : 48.0 KHz
Bit depth : 16 bits
Compression mode : Lossy
Stream size : 33.7 MiB (3%)
Audio #2
ID : 189 (0xBD)-129 (0x81)
Format : AC-3
Format/Info : Audio Coding 3
Mode extension : CM (complete main)
Format settings, Endianness : Big
Muxing mode : DVD-Video
Duration : 24mn 31s
Bit rate mode : Constant
Bit rate : 192 Kbps
Channel(s) : 2 channels
Channel positions : Front: L R
Sampling rate : 48.0 KHz
Bit depth : 16 bits
Compression mode : Lossy
Stream size : 33.7 MiB (3%)
Audio #3
ID : 189 (0xBD)-130 (0x82)
Format : AC-3
Format/Info : Audio Coding 3
Mode extension : CM (complete main)
Format settings, Endianness : Big
Muxing mode : DVD-Video
Duration : 24mn 31s
Bit rate mode : Constant
Bit rate : 192 Kbps
Channel(s) : 2 channels
Channel positions : Front: L R
Sampling rate : 48.0 KHz
Bit depth : 16 bits
Compression mode : Lossy
Stream size : 33.7 MiB (3%)
Text
ID : 189 (0xBD)-32 (0x20)
Format : RLE
Format/Info : Run-length encoding
Muxing mode : DVD-Video
Menu

DVD Info

Title: The Monster Club_1980_DVD5 R2
Size: 4.18 Gb ( 4 382 882,00 KBytes ) - DVD-5
Enabled regions: 1, 2, 3, 4, 5, 6, 7, 8
VTS_01 :
Play Length: 01:33:47
Video: PAL 4:3 (720x576) VBR
Audio:
Russian, AC3, 2/0 (L,R) ch, 192 kbps, Delay 0 mSec
English, AC3, 2/0 (L,R) ch, 192 kbps, Delay 0 mSec
Italiano, AC3, 2/0 (L,R) ch, 192 kbps, Delay 0 mSec
Subtitles:
Italiano
* Menus Information *
VIDEO_TS Menu
Video:
PAL 4:3 (720x576) VBR
Audio:
Not specified (Dolby AC3, 6 ch)
Italiano Language Unit :
Title Menu
VTS_01 Menu
Video:
PAL 4:3 (720x576) VBR
Audio:
Not specified (Dolby AC3, 2 ch)
Italiano Language Unit :
Root Menu

П. О.

PgcDemux 1.2.0.5 - разделение компонентов диска на файлы;
BeSweetv1.5b31+BeLight 0.21 - AC3 -> Wav
Sound Forge pro 10 - Wav -> AC3
MuxMan DVD authoring Professional 1.4.4 - мультиплексирование и авторинг DVD;
DVDRemake Pro 3.6.4 - реавторинг DVD;
DVD Shrink 3.2 - Сэмпл
VLC - Скриншоты-
-
-

-
-
-BeSweet v1.5b31 by DSPguru.
--------------------------
Using azid.dll v1.9 (b922) by Midas (midas@egon.gyaloglo.hu).
Logging start : 07/20/14 , 23:57:59.
BeSweet.exe -core( -input C:\Temp\MONSTER\AudioFile_81.ac3 -output C:\Temp\MONSTER\AudioFile_81.wav -2ch -logfile C:\Temp\MONSTER\AudioFile_81.log ) -azid( -s mono -c normal -L -3db )
[00:00:00:000] +------- BeSweet -----
[00:00:00:000] | Input : C:\Temp\MONSTER\AudioFile_81.ac3
[00:00:00:000] | Output: C:\Temp\MONSTER\AudioFile_81.wav
[00:00:00:000] | Floating-Point Process: No
[00:00:00:000] +-------- AZID -------
[00:00:00:000] | Input Channels Mode: 2/0, Bitrate: 192kbps
[00:00:00:000] | Output Stereo mode: Dolby surround 2 compatible
[00:00:00:000] | Total Gain: 0.000dB, Compression: Normal
[00:00:00:000] | LFE levels: To LR -3.0dB, To LFE 0.0dB
[00:00:00:000] | Center mix level: BSI
[00:00:00:000] | Surround mix level: BSI
[00:00:00:000] | Dialog normalization: No
[00:00:00:000] | Rear channels filtering: No
[00:00:00:000] | Source Sample-Rate: 48.0KHz
[00:00:00:000] +---------------------
[01:33:47:936] Conversion Completed !
[01:33:47:936] Actual Avg. Bitrate : 9kbps
[00:01:12:000]
[Profile]  [PM] 
Display posts:    
Reply to topic

Current time is: 14-Apr 22:55

All times are UTC + 2



You cannot post new topics in this forum
You cannot reply to topics in this forum
You cannot edit your posts in this forum
You cannot delete your posts in this forum
You cannot vote in polls in this forum
You cannot attach files in this forum
You cannot download files in this forum