Сердца мужчин / Le coeur des hommes (Марк Эспозито / Marc Esposito) [2003, Франция, драма, мелодрама, комедия, DVD9 (Custom)] [16:9 PAL R2] DVO + Sub Rus (Е.Маньен, Animat, grafd)+ Original Fre

Reply to topic
 
Author
Message

Faust ®

Gender: Unknown

Longevity: 9 years 6 months

Posts: 14961

Reputation: 0 [+] [-]

Faust · Post 11-Aug-2014 00:55

[Quote] 

Сердца мужчин / Le coeur des hommes
16:9 PAL R2
Страна: Франция
Студия: Bac Films, Canal+, Cofimage 13, France 2 Cinéma, Natexis Banques Populaires Images 3, PJP Films, Région Ile-de-France
Жанр: драма, мелодрама, комедия
Год выпуска: 2003
Продолжительность: 01:42:08
Перевод: Профессиональный (двухголосый закадровый)
Cубтитры: русские(Е.Маньен, Animat, grafd)
Оригинальная аудиодорожка: французский
Режиссер: Марк Эспозито / Marc Esposito
В ролях: Бернар Кампан, Жерар Дармон, Жан-Пьер Дарруссен, Марк Лавуан, Людмила Микаэль, Фабьенн Баб, Зоэ Феликс, Флоранс Томассен, Катрин Вилькенинг, Жуль Штерн ...
Описание: Когда-то Антуан, Маню, Алекс и Джефф были молоды и играли в одной футбольной команде. Сейчас им всем уже за 50, у каждого свое дело, но в личной жизни — никакой стабильности. Измены, бурные романы и мимолетные влюбленности, предательство и потеря близких.
Многое готовы претерпеть друзья для обретения постоянной подруги и уютного семейного очага, — даже отказаться от традиционных привилегий «сильного» пола, лишь бы их любили и прощали невинные (?) мужские шалости. Потому что, как откровенно сказал один из героев: «Есть мужчины свободные, а есть другие — счастливые мужчины!»
Доп. информация: Диск собран из Le coeur des hommes_2003_DVD9 R2 найденного в сети. (Который на постере)
Меню: Анимированное, озвученное на французскомМеню неотредактировано, переключение звуковых дорожек и субтитров с пульта.
Фильм автоматический стартует с рус. звук. дорожкой.
--Спасибо за рус. одноголосый и субтитры katusha77-- -
-

Награды


-
-Le coeur des hommes_2003_DVD9 R2_Sample_.rar-
-

Точка перехода на второй слой


-
-Тип релиза: DVD9 (Custom)
Контейнер: DVD-Video
Видео: PAL 16:9 (720x576) VBR Auto Letterboxed, ~ 9404.15 kbps avg
Аудио 1: Francais, AC3, 3/2 (L,C,R,SL,SR)+LFE ch, 448 kbps, Delay 0 mSec
Аудио 2: Francais, LPCM, 2/0 (L,R) ch, 1 536 kbps, Delay = 0 mSec
Аудио 3: Russian, AC3, 2/0 (L,R) ch, 192 kbps, Delay 0 mSec
Формат субтитров: prerendered (DVD/IDX+SUB)

MediaInfo

General
Complete name : Le coeur des hommes_2003_DVD9 R2\VIDEO_TS\VTS_01_2.VOB
Format : MPEG-PS
File size : 1 024 MiB
Duration : 15mn 38s
Overall bit rate mode : Variable
Overall bit rate : 9 152 Kbps
Video
ID : 224 (0xE0)
Format : MPEG Video
Format version : Version 2
Format profile : Main@Main
Format settings, BVOP : Yes
Format settings, Matrix : Custom
Format settings, GOP : M=3, N=12
Duration : 15mn 38s
Bit rate mode : Variable
Bit rate : 6 800 Kbps
Width : 720 pixels
Height : 576 pixels
Display aspect ratio : 16:9
Frame rate : 25.000 fps
Standard : PAL
Color space : YUV
Chroma subsampling : 4:2:0
Bit depth : 8 bits
Scan type : Interlaced
Scan order : Top Field First
Compression mode : Lossy
Bits/(Pixel*Frame) : 0.656
Time code of first frame : 10:15:38:16
Time code source : Group of pictures header
Stream size : 760 MiB (74%)
Audio #1
ID : 189 (0xBD)-128 (0x80)
Format : AC-3
Format/Info : Audio Coding 3
Mode extension : CM (complete main)
Format settings, Endianness : Big
Muxing mode : DVD-Video
Duration : 15mn 38s
Bit rate mode : Constant
Bit rate : 448 Kbps
Channel(s) : 6 channels
Channel positions : Front: L C R, Side: L R, LFE
Sampling rate : 48.0 KHz
Bit depth : 16 bits
Compression mode : Lossy
Delay relative to video : -352ms
Stream size : 50.1 MiB (5%)
Audio #2
ID : 189 (0xBD)-130 (0x82)
Format : AC-3
Format/Info : Audio Coding 3
Mode extension : CM (complete main)
Format settings, Endianness : Big
Muxing mode : DVD-Video
Duration : 15mn 38s
Bit rate mode : Constant
Bit rate : 192 Kbps
Channel(s) : 2 channels
Channel positions : Front: L R
Sampling rate : 48.0 KHz
Bit depth : 16 bits
Compression mode : Lossy
Delay relative to video : -352ms
Stream size : 21.5 MiB (2%)
Audio #3
ID : 189 (0xBD)-161 (0xA1)
Format : PCM
Format settings, Endianness : Big
Format settings, Sign : Signed
Muxing mode : DVD-Video
Duration : 15mn 38s
Bit rate mode : Constant
Bit rate : 1 536 Kbps
Channel(s) : 2 channels
Sampling rate : 48.0 KHz
Bit depth : 16 bits
Delay relative to video : -440ms
Stream size : 172 MiB (17%)
Menu

DVD Info

Title: Le coeur des hommes_2003_DVD9 R2
Size: 6.84 Gb ( 7 167 784,00 KBytes ) - DVD-9
Enabled regions: 1, 2, 3, 4, 5, 6, 7, 8
VTS_01 :
Play Length: 01:42:08+00:00:00
Video: PAL 16:9 (720x576) VBR, Auto Letterboxed
Audio:
Francais, AC3, 3/2 (L,C,R,SL,SR)+LFE ch, 448 kbps, Delay 0 mSec
Francais, LPCM, Delay = 0 mSec
Russian, AC3, 2/0 (L,R) ch, 192 kbps, Delay 0 mSec
Subtitles:
Russian
VTS_02 :
Play Length: 00:00:00
Video: PAL 16:9 (720x576) VBR, Auto Letterboxed
Audio:
Not specified (Dolby AC3, 1 ch)
* Menus Information *
VIDEO_TS Menu
Video:
PAL 16:9 (720x576) VBR
Auto Letterboxed
Audio:
Not specified (Dolby AC3, 2 ch)
English Language Unit :
Title Menu
VTS_01 Menu
Video:
PAL 16:9 (720x576) VBR
Auto Letterboxed
Audio:
Not specified (Dolby AC3, 2 ch)
English Language Unit :
Root Menu
Audio Menu
Chapter (PTT) Menu
VTS_02 Menu
Video:
NTSC 4:3 (720x480) VBR
Auto Pan&Scan, Auto Letterboxed
English Language Unit :
Root Menu

П. О.

PgcDemux 1.2.0.5 - разделение компонентов диска на файлы;
BeSweetv1.5b31+BeLight 0.21 - AC3, mp3 -> Wav
Sound Forge pro 10 - Wav -> AC3
MaestroSBT-Unicode-2.6.2.1 - Создание субтитров
DVDSubEdit -- Version 1.52 - Правка (цветовых схем) субтитров
MuxMan DVD authoring Professional 1.4.4 - мультиплексирование и авторинг DVD;
DVDRemake Pro 3.6.4 - реавторинг DVD;
DVD Shrink 3.2 - Сэмпл
VLC - Скриншоты-
-
-

-
-
-BeSweet v1.5b31 by DSPguru.
--------------------------
Using hip.dll v1.19 by Myers Carpenter
Logging start : 08/07/14 , 23:59:24.
BeSweet.exe -core( -input C:\Temp\HOMME\RUS_.mp3 -output C:\Temp\HOMME\RUS_.wav -2ch -logfile C:\Temp\HOMME\RUS_.log ) -azid( -s mono -L -3db )
[00:00:00:000] +------- BeSweet -----
[00:00:00:000] | Input : C:\Temp\HOMME\RUS_.mp3
[00:00:00:000] | Output: C:\Temp\HOMME\RUS_.wav
[00:00:00:000] | Floating-Point Process: No
[00:00:00:000] | Source Sample-Rate: 48.0KHz
[00:00:00:000] +---------------------
[01:42:08:088] Conversion Completed !
[01:42:08:088] Actual Avg. Bitrate : 134kbps
[00:00:53:000]
[Profile]  [PM] 
Display posts:    
Reply to topic

Current time is: 14-Apr 21:26

All times are UTC + 2



You cannot post new topics in this forum
You cannot reply to topics in this forum
You cannot edit your posts in this forum
You cannot delete your posts in this forum
You cannot vote in polls in this forum
You cannot attach files in this forum
You cannot download files in this forum