Дом / Home (Урсула Майер / Ursula Meier) [2008, Швейцария, Франция, Бельгия, драма, DVD9 (Custom)] [16:9 PAL R2] MVO (Лицензия) + MVO (ГТРК "Культура") + Sub Eng Dut Rus (deadman, xelibri) + Original Fre

Reply to topic
 
Author
Message

Faust ®

Gender: Unknown

Longevity: 9 years 6 months

Posts: 14955

Reputation: 0 [+] [-]

Faust · Post 31-Aug-2014 00:20

[Quote] 

Дом / Home
16:9 PAL R2
Страна: Швейцария, Франция, Бельгия
Студия: Box Productions, Archipel 35, Need Productions, France 3 Cinéma, Télévision Suisse-Romande (TSR), Radio Télévision Belge Francophone (RTBF), Eurimages, Office Fédéral de la Culture, Centre National de la Cinématographie (CNC), Canal+, CinéCinéma, Cinémage 2, Soficinéma 3
Жанр: драма
Год выпуска: 2008
Продолжительность: 01:33:41
Перевод 1: Профессиональный (многоголосый закадровый) - Лицензия
Перевод 2: Профессиональный (многоголосый закадровый) - ГТРК "Культура"
Cубтитры: английские, нидерландские, русские(deadman, xelibri)
Оригинальная аудиодорожка: французский
Режиссер: Урсула Майер / Ursula Meier
В ролях: Изабель Юппер, Оливье Гурме, Аделаид Леру, Мадлен Бадд, Кейси Моттет Кляйн, Рено Ривие, Килиан Торрент, Николас Дель Сордо, Хьюго Сейнт-Джеймс, Вирджил Берсе ...
Описание: Марта и Мишель вместе с тремя детьми живут рядом с недостроенным шоссе. Для их семьи эта давным-давно забытая властями трасса — обжитое место для повседневных хлопот и игр. Но когда магистраль достраивают, нескончаемый поток машин нарушает привычную и налаженную жизнь семьи. Сталкиваясь с неожиданными трудностями, герои постепенно осознают, что любовь и взаимопонимание превыше всего.
Доп. информация: Диск собран из Home_2008_DVD9 R2 найденного в сети. (Который на постере)
Бонусы:
- Entretien avec Ursula Meier et Agnès Godard (00:32:36 mn)
- A propos des décors
- Premiers essais de Kacey Mottet Klein
- Bande-annonce
Меню: Анимированное, озвученное на французском и нидерландском.Меню неотредактировано, переключение звуковых дорожек и субтитров с пульта.
Фильм автоматический стартует с рус. звук. дорожкой("Культура").
--Спасибо за рус. многоголосые miha2154
Спасибо за рус. субтитры сhizhik
-- -
-

Награды

Home_2008_DVD9 R2_Sample_.rar-
-

Точка перехода на второй слой


-
-Тип релиза: DVD9 (Custom)
Контейнер: DVD-Video
Видео: PAL 16:9 (720x576) VBR Auto Letterboxed, ~ 8247.48 kbps avg
Аудио 1: Francais, AC3, 2/0 (L,R) ch, 192 kbps, Delay 0 mSec
Аудио 2: Francais, AC3, 3/2 (L,C,R,SL,SR)+LFE ch, 448 kbps, Delay 0 mSec
Аудио 3: Russian, AC3, 2/0 (L,R) ch, 192 kbps, Delay 0 mSec - MVO Лицензия
Аудио 4: Russian, AC3, 2/0 (L,R) ch, 192 kbps, Delay 0 mSec - MVO ГТРК "Культура"
Формат субтитров: prerendered (DVD/IDX+SUB)

MediaInfo

General
Complete name : Home_2008_DVD9 R2\VIDEO_TS\VTS_01_1.VOB
Format : MPEG-PS
File size : 1 024 MiB
Duration : 17mn 41s
Overall bit rate mode : Variable
Overall bit rate : 8 093 Kbps
Video
ID : 224 (0xE0)
Format : MPEG Video
Format version : Version 2
Format profile : Main@Main
Format settings, BVOP : Yes
Format settings, Matrix : Custom
Format settings, GOP : M=3, N=12
Duration : 17mn 41s
Bit rate mode : Variable
Bit rate : 6 908 Kbps
Maximum bit rate : 8 260 Kbps
Width : 720 pixels
Height : 576 pixels
Display aspect ratio : 16:9
Frame rate : 25.000 fps
Standard : PAL
Color space : YUV
Chroma subsampling : 4:2:0
Bit depth : 8 bits
Scan type : Interlaced
Scan order : Top Field First
Compression mode : Lossy
Bits/(Pixel*Frame) : 0.666
Time code of first frame : 10:00:00:00
Time code source : Group of pictures header
Stream size : 874 MiB (85%)
Audio #1
ID : 189 (0xBD)-128 (0x80)
Format : AC-3
Format/Info : Audio Coding 3
Mode extension : CM (complete main)
Format settings, Endianness : Big
Muxing mode : DVD-Video
Duration : 17mn 41s
Bit rate mode : Constant
Bit rate : 192 Kbps
Channel(s) : 2 channels
Channel positions : Front: L R
Sampling rate : 48.0 KHz
Bit depth : 16 bits
Compression mode : Lossy
Stream size : 24.3 MiB (2%)
Audio #2
ID : 189 (0xBD)-129 (0x81)
Format : AC-3
Format/Info : Audio Coding 3
Mode extension : CM (complete main)
Format settings, Endianness : Big
Muxing mode : DVD-Video
Duration : 17mn 41s
Bit rate mode : Constant
Bit rate : 448 Kbps
Channel(s) : 6 channels
Channel positions : Front: L C R, Side: L R, LFE
Sampling rate : 48.0 KHz
Bit depth : 16 bits
Compression mode : Lossy
Stream size : 56.7 MiB (6%)
Audio #3
ID : 189 (0xBD)-130 (0x82)
Format : AC-3
Format/Info : Audio Coding 3
Mode extension : CM (complete main)
Format settings, Endianness : Big
Muxing mode : DVD-Video
Duration : 17mn 41s
Bit rate mode : Constant
Bit rate : 192 Kbps
Channel(s) : 2 channels
Channel positions : Front: L R
Sampling rate : 48.0 KHz
Bit depth : 16 bits
Compression mode : Lossy
Stream size : 24.3 MiB (2%)
Audio #4
ID : 189 (0xBD)-131 (0x83)
Format : AC-3
Format/Info : Audio Coding 3
Mode extension : CM (complete main)
Format settings, Endianness : Big
Muxing mode : DVD-Video
Duration : 17mn 41s
Bit rate mode : Constant
Bit rate : 192 Kbps
Channel(s) : 2 channels
Channel positions : Front: L R
Sampling rate : 48.0 KHz
Bit depth : 16 bits
Compression mode : Lossy
Stream size : 24.3 MiB (2%)
Text #1
ID : 189 (0xBD)-32 (0x20)
Format : RLE
Format/Info : Run-length encoding
Muxing mode : DVD-Video
Text #2
ID : 189 (0xBD)-33 (0x21)
Format : RLE
Format/Info : Run-length encoding
Muxing mode : DVD-Video
Text #3
ID : 189 (0xBD)-34 (0x22)
Format : RLE
Format/Info : Run-length encoding
Muxing mode : DVD-Video
Text #4
ID : 189 (0xBD)-35 (0x23)
Format : RLE
Format/Info : Run-length encoding
Muxing mode : DVD-Video
Text #5
ID : 189 (0xBD)-36 (0x24)
Format : RLE
Format/Info : Run-length encoding
Muxing mode : DVD-Video
Menu

DVD Info

Title: Home_2008_DVD9 R2
Size: 7.70 Gb ( 8 077 788,00 KBytes ) - DVD-9
Enabled regions: 1, 2, 3, 4, 5, 6, 7, 8
VTS_01 :
Play Length: 01:33:41
Video: PAL 16:9 (720x576) VBR, Auto Letterboxed
Audio:
Francais, AC3, 2/0 (L,R) ch, 192 kbps, Delay 0 mSec
Francais, AC3, 3/2 (L,C,R,SL,SR)+LFE ch, 448 kbps, Delay 0 mSec
Russian, AC3, 2/0 (L,R) ch, 192 kbps, Delay 0 mSec
Russian, AC3, 2/0 (L,R) ch, 192 kbps, Delay 0 mSec
Subtitles:
Nederlands
English
Russian
VTS_02 :
Play Length: 00:32:36
Video: PAL 16:9 (720x576) VBR, Auto Letterboxed
Audio:
Francais (Dolby AC3, 2 ch)
Subtitles:
English
VTS_03 :
Play Length: 00:07:06+00:09:46
Video: PAL 4:3 (720x576) VBR
Audio:
Francais (Dolby AC3, 2 ch)
Subtitles:
English
VTS_04 :
Play Length: 00:01:33
Video: PAL 16:9 (720x576) VBR, Auto Letterboxed
Audio:
Francais (Dolby AC3, 2 ch)
Subtitles:
Nederlands
* Menus Information *
VIDEO_TS Menu
Video:
PAL 16:9 (720x576) VBR
Auto Letterboxed
Audio:
Not specified (Dolby AC3, 2 ch)
English Language Unit :
Title Menu
VTS_01 Menu
Video:
PAL 16:9 (720x576) VBR
Auto Letterboxed
Audio:
Not specified (Dolby AC3, 2 ch)
English Language Unit :
Root Menu
Subpicture Menu
Audio Menu
Chapter (PTT) Menu
VTS_02 Menu
Video:
PAL 16:9 (720x576) VBR
Auto Letterboxed
English Language Unit :
Root Menu
Angle menu
VTS_03 Menu
Video:
PAL 4:3 (720x576) VBR
English Language Unit :
Root Menu
Angle menu
VTS_04 Menu
Video:
PAL 16:9 (720x576) VBR
Auto Letterboxed
English Language Unit :
Root Menu
Angle menu

П. О.

PgcDemux 1.2.0.5 - разделение компонентов диска на файлы;
BeSweetv1.5b31+BeLight 0.21 - AC3, mp3 -> Wav
Sound Forge pro 10 - Wav -> AC3
MaestroSBT-Unicode-2.6.2.1 - Создание субтитров
DVDSubEdit -- Version 1.52 - Правка (цветовых схем) субтитров
MuxMan DVD authoring Professional 1.4.4 - мультиплексирование и авторинг DVD;
DVDRemake Pro 3.6.4 - реавторинг DVD;
DVD Shrink 3.2 - Сэмпл
VLC - Скриншоты-
-
-


-
-
-BeSweet v1.5b31 by DSPguru.
--------------------------
Using azid.dll v1.9 (b922) by Midas (midas@egon.gyaloglo.hu).
Logging start : 08/28/14 , 19:48:13.
BeSweet.exe -core( -input C:\Temp\HOME\AudioFile_80.ac3 -output C:\Temp\HOME\AudioFile_80.wav -2ch -logfile C:\Temp\HOME\AudioFile_80.log ) -azid( -s mono -c normal -L -3db )
[00:00:00:000] +------- BeSweet -----
[00:00:00:000] | Input : C:\Temp\HOME\AudioFile_80.ac3
[00:00:00:000] | Output: C:\Temp\HOME\AudioFile_80.wav
[00:00:00:000] | Floating-Point Process: No
[00:00:00:000] +-------- AZID -------
[00:00:00:000] | Input Channels Mode: 2/0, Bitrate: 192kbps
[00:00:00:000] | Output Stereo mode: Dolby surround 2 compatible
[00:00:00:000] | Total Gain: 0.000dB, Compression: Normal
[00:00:00:000] | LFE levels: To LR -3.0dB, To LFE 0.0dB
[00:00:00:000] | Center mix level: BSI
[00:00:00:000] | Surround mix level: BSI
[00:00:00:000] | Dialog normalization: No
[00:00:00:000] | Rear channels filtering: No
[00:00:00:000] | Source Sample-Rate: 48.0KHz
[00:00:00:000] +---------------------
[01:33:41:440] Conversion Completed !
[01:33:41:440] Actual Avg. Bitrate : 7kbps
[00:01:13:000]
[Profile]  [PM] 
Display posts:    
Reply to topic

Current time is: 14-Apr 01:05

All times are UTC + 2



You cannot post new topics in this forum
You cannot reply to topics in this forum
You cannot edit your posts in this forum
You cannot delete your posts in this forum
You cannot vote in polls in this forum
You cannot attach files in this forum
You cannot download files in this forum