Фрэнки наводит шорох / Frankie Go Boom (Джордан Робертс / Jordan Roberts) [2010, США, комедия, DVD5 (Custom)] [16:9 PAL R2] MVO (baibako) + VO (den904) + Sub Dut + Original Eng

Reply to topic
 
Author
Message

Faust ®

Gender: Unknown

Longevity: 9 years 6 months

Posts: 14961

Reputation: 0 [+] [-]

Faust · Post 10-Sep-2014 00:25

[Quote] 

Фрэнки наводит шорох / Frankie Go Boom
16:9 PAL R2
Слоган: «A comedy about two brothers, a girl with a broken heart, a sex tape, an angel and a pig...» Страна: США
Студия: Defender Films, Kirkham/Lewitt
Жанр: комедия
Год выпуска: 2010
Продолжительность: 01:25:06
Перевод 1: Любительский (многоголосый закадровый) - baibako
Перевод 2: Одноголосый закадровый - den904
Cубтитры: нидерландские
Оригинальная аудиодорожка: английский
Режиссер: Джордан Робертс / Jordan Roberts
В ролях: Чарли Ханнэм, Крис О’Дауд, Лиззи Каплан, Крис Нот, Рон Перлман, Нора Данн, Сэм Андерсон, Кейт Лайбен, Уитни Каммингс, Оливер Хэм Остин ...
Описание: Франк Бартлетт долгое время подвергался пыткам, издевкам, и оскорблениям от своего брата-наркомана Брюса — и, как правило, все это Брюс записывал на камеру. Теперь, когда Брюс, наконец, завязал с наркотиками и изменил свою жизнь, все должно пойти к лучшему, но…
Доп. информация: Диск собран из Frankie Go Boom_2010_DVD5 R2 найденного в сети. (Который на постере)
Бонусы: Behind the scenes
Меню: Статичное, неозвученное, на английском.Меню неотредактировано, переключение звуковых дорожек с пульта.
Фильм автоматический стартует с рус. звук. дорожкой("baibako").
--Спасибо за рус. многоголосый унабомбер
Спасибо за рус. одноголосый ed_rez
-- --Frankie Go Boom_2010_DVD5 R2_Sample_.rar--Тип релиза: DVD5 (Custom)
Контейнер: DVD-Video
Видео: PAL 16:9 (720x576) VBR Auto Letterboxed, ~ 6783.63 kbps avg
Аудио 1: Russian, AC3, 3/2 (L,C,R,SL,SR)+LFE ch, 448 kbps, Delay 0 mSec - MVO baibako
Аудио 2: Russian, AC3, 3/2 (L,C,R,SL,SR)+LFE ch, 448 kbps, Delay 0 mSec - VO den904
Аудио 3: English, AC3, 3/2 (L,C,R,SL,SR)+LFE ch, 448 kbps, Delay 0 mSec
Формат субтитров: prerendered (DVD/IDX+SUB)

MediaInfo

General
Complete name : Frankie Go Boom_2010_DVD5 R2\VIDEO_TS\VTS_01_2.VOB
Format : MPEG-PS
File size : 1 024 MiB
Duration : 19mn 50s
Overall bit rate mode : Variable
Overall bit rate : 7 213 Kbps
Video
ID : 224 (0xE0)
Format : MPEG Video
Format version : Version 2
Format profile : Main@Main
Format settings, BVOP : Yes
Format settings, Matrix : Custom
Format settings, GOP : Variable
Duration : 19mn 50s
Bit rate mode : Variable
Bit rate : 5 726 Kbps
Maximum bit rate : 8 500 Kbps
Width : 720 pixels
Height : 576 pixels
Display aspect ratio : 16:9
Frame rate : 25.000 fps
Standard : PAL
Color space : YUV
Chroma subsampling : 4:2:0
Bit depth : 8 bits
Scan type : Interlaced
Scan order : Top Field First
Compression mode : Lossy
Bits/(Pixel*Frame) : 0.552
Time code of first frame : 08:55:12:23
Time code source : Group of pictures header
Stream size : 813 MiB (79%)
Audio #1
ID : 189 (0xBD)-128 (0x80)
Format : AC-3
Format/Info : Audio Coding 3
Mode extension : CM (complete main)
Format settings, Endianness : Big
Muxing mode : DVD-Video
Duration : 19mn 50s
Bit rate mode : Constant
Bit rate : 448 Kbps
Channel(s) : 6 channels
Channel positions : Front: L C R, Side: L R, LFE
Sampling rate : 48.0 KHz
Bit depth : 16 bits
Compression mode : Lossy
Delay relative to video : -544ms
Stream size : 63.6 MiB (6%)
Audio #2
ID : 189 (0xBD)-129 (0x81)
Format : AC-3
Format/Info : Audio Coding 3
Mode extension : CM (complete main)
Format settings, Endianness : Big
Muxing mode : DVD-Video
Duration : 19mn 50s
Bit rate mode : Constant
Bit rate : 448 Kbps
Channel(s) : 6 channels
Channel positions : Front: L C R, Side: L R, LFE
Sampling rate : 48.0 KHz
Bit depth : 16 bits
Compression mode : Lossy
Delay relative to video : -544ms
Stream size : 63.6 MiB (6%)
Audio #3
ID : 189 (0xBD)-130 (0x82)
Format : AC-3
Format/Info : Audio Coding 3
Mode extension : CM (complete main)
Format settings, Endianness : Big
Muxing mode : DVD-Video
Duration : 19mn 50s
Bit rate mode : Constant
Bit rate : 448 Kbps
Channel(s) : 6 channels
Channel positions : Front: L C R, Side: L R, LFE
Sampling rate : 48.0 KHz
Bit depth : 16 bits
Compression mode : Lossy
Delay relative to video : -544ms
Stream size : 63.6 MiB (6%)
Text #1
ID : 189 (0xBD)-32 (0x20)
Format : RLE
Format/Info : Run-length encoding
Muxing mode : DVD-Video
Text #2
ID : 189 (0xBD)-33 (0x21)
Format : RLE
Format/Info : Run-length encoding
Muxing mode : DVD-Video
Menu

DVD Info

Title: Frankie Go Boom_2010_DVD5 R2
Size: 4.35 Gb ( 4 564 840,00 KBytes ) - DVD-5
Enabled regions: 1, 2, 3, 4, 5, 6, 7, 8
VTS_01 :
Play Length: 01:25:06
Video: PAL 16:9 (720x576) VBR, Auto Letterboxed
Audio:
Russian, AC3, 3/2 (L,C,R,SL,SR)+LFE ch, 448 kbps, Delay 0 mSec
Russian, AC3, 3/2 (L,C,R,SL,SR)+LFE ch, 448 kbps, Delay 0 mSec
English, AC3, 3/2 (L,C,R,SL,SR)+LFE ch, 448 kbps, Delay 0 mSec
Subtitles:
Nederlands
VTS_02 :
Play Length: 00:07:50
Video: PAL 16:9 (720x576) VBR, Auto Letterboxed
Audio:
English (Dolby AC3, 2 ch)
Subtitles:
Nederlands
VTS_03 :
Play Length: 00:00:00
Video: PAL 16:9 (720x576) VBR, Auto Letterboxed
Audio:
English (Dolby AC3, 2 ch)
Subtitles:
Nederlands
* Menus Information *
VIDEO_TS Menu
Video:
PAL 16:9 (720x576) VBR
Auto Letterboxed
Audio:
Not specified (Dolby AC3, 2 ch)
English Language Unit :
Title Menu
VTS_01 Menu
Video:
PAL 16:9 (720x576) VBR
Auto Letterboxed
English Language Unit :
Root Menu
VTS_02 Menu
Video:
PAL 16:9 (720x576) VBR
Auto Letterboxed
Abkhazian Language Unit :
Root Menu
VTS_03 Menu
Video:
PAL 16:9 (720x576) VBR
Auto Letterboxed
English Language Unit :
Root Menu

П. О.

PgcDemux 1.2.0.5 - разделение компонентов диска на файлы;
BeSweetv1.5b31+BeLight 0.21 - AC3, -> Wav
Sound Forge pro 10 - Wav -> AC3
MuxMan DVD authoring Professional 1.4.4 - мультиплексирование и авторинг DVD;
DVDRemake Pro 3.6.4 - реавторинг DVD;
DVD Shrink 3.2 - Сэмпл
VLC - Скриншоты-
-
-


-
-
-BeSweet v1.5b31 by DSPguru.
--------------------------
Using azid.dll v1.9 (b922) by Midas (midas@egon.gyaloglo.hu).
Logging start : 08/17/14 , 03:46:56.
BeSweet.exe -core( -input C:\Temp\FRENCY\AudioFile_80.ac3 -output C:\Temp\FRENCY\AudioFile_80.wav -6chwav -logfile C:\Temp\FRENCY\AudioFile_80.log ) -azid( -c normal )
[00:00:00:000] +------- BeSweet -----
[00:00:00:000] | Input : C:\Temp\FRENCY\AudioFile_80.ac3
[00:00:00:000] | Output: C:\Temp\FRENCY\AudioFile_80.wav
[00:00:00:000] | Floating-Point Process: No
[00:00:00:000] +-------- AZID -------
[00:00:00:000] | Input Channels Mode: 3/2, Bitrate: 448kbps
[00:00:00:000] | Total Gain: 0.000dB, Compression: Normal
[00:00:00:000] | LFE levels: To LR -INF, To LFE 0.0dB
[00:00:00:000] | Center mix level: BSI
[00:00:00:000] | Surround mix level: BSI
[00:00:00:000] | Dialog normalization: No
[00:00:00:000] | Rear channels filtering: No
[00:00:00:000] | Source Sample-Rate: 48.0KHz
[00:00:00:000] +---------------------
[01:25:06:464] Conversion Completed !
[01:25:06:464] Actual Avg. Bitrate : 841kbps
[00:03:14:000]
[Profile]  [PM] 
Display posts:    
Reply to topic

Current time is: 14-Apr 22:59

All times are UTC + 2



You cannot post new topics in this forum
You cannot reply to topics in this forum
You cannot edit your posts in this forum
You cannot delete your posts in this forum
You cannot vote in polls in this forum
You cannot attach files in this forum
You cannot download files in this forum