Они прибыли из другого пространства / Они прибыли из космоса / They Came from Beyond Space (Фредди Фрэнсис / Freddie Francis) [1967, Великобритания, фантастика, приключения, DVD5 (Custom)] [16:9 PAL R2] Sub Rus (MarfenaRus) + Original Eng

Reply to topic
 
Author
Message

Faust ®

Gender: Unknown

Longevity: 9 years 6 months

Posts: 14955

Reputation: 0 [+] [-]

Faust · Post 16-Sep-2014 00:25

[Quote] 

Они прибыли из другого пространства / Они прибыли из космоса
They Came from Beyond Space

16:9 PAL R2
Слоган: «Conquerors from a dying world invade Earth!» Страна: Великобритания
Студия: Amicus Productions
Жанр: фантастика, приключения
Год выпуска: 1967
Продолжительность: 01:21:42
Перевод: Субтитры - MarfenaRus(ретайминг rjhlb777)
Cубтитры: русские
Оригинальная аудиодорожка: английский
Режиссер: Фредди Фрэнсис / Freddie Francis
В ролях: Роберт Хаттон, Дженнифер Джейн, Зия Мухеддин, Бернард Кэй, Майкл Гоф, Джеффри Уоллес, Морис Гуд, Luanshya Greer, Джон Харви, Диана Кинг ...
Описание: Пришельцы решают использовать земных учёных как рабов для починки своего корабля, потерпевшего крушение на Луне. Для этого они используют особую телепатическую силу, к которой на своё счастье оказывается невосприимчив главный герой, после автокатастрофы заимевший в голове стальную пластину.
Доп. информация: Диск собран из They Came from Beyond Space_1967_DVD5 R2 найденного в сети. (Который на постере)
Меню: Статичное, озвученное, на английском.Меню неотредактировано, переключение субтитров с пульта.
Фильм автоматический стартует с анг. звук. дорожкой и рус. субтитрами.
--Спасибо за рус. субтитры marfenarus
-- --They Came from Beyond Space_1967_DVD5 R2_Sample_.rar--Тип релиза: DVD5 (Custom)
Контейнер: DVD-Video
Видео: PAL 16:9 (720x576) VBR Auto Letterboxed, ~ 6897.65 kbps avg
Аудио: English, AC3, 2/0 (L,R) ch, 256 kbps, Delay 0 mSec
Формат субтитров: prerendered (DVD/IDX+SUB)

MediaInfo

General
Complete name : They Came from Beyond Space_1967_DVD5 R2\VIDEO_TS\VTS_02_1.VOB
Format : MPEG-PS
File size : 1 024 MiB
Duration : 20mn 46s
Overall bit rate mode : Variable
Overall bit rate : 6 894 Kbps
Video
ID : 224 (0xE0)
Format : MPEG Video
Format version : Version 2
Format profile : Main@Main
Format settings, BVOP : Yes
Format settings, Matrix : Custom
Format settings, GOP : Variable
Duration : 20mn 46s
Bit rate mode : Variable
Bit rate : 6 500 Kbps
Width : 720 pixels
Height : 576 pixels
Display aspect ratio : 16:9
Frame rate : 25.000 fps
Standard : PAL
Color space : YUV
Chroma subsampling : 4:2:0
Bit depth : 8 bits
Scan type : Interlaced
Scan order : Top Field First
Compression mode : Lossy
Bits/(Pixel*Frame) : 0.627
Time code of first frame : 00:00:22:09
Time code source : Group of pictures header
Stream size : 966 MiB (94%)
Audio
ID : 189 (0xBD)-128 (0x80)
Format : AC-3
Format/Info : Audio Coding 3
Mode extension : CM (complete main)
Format settings, Endianness : Big
Muxing mode : DVD-Video
Duration : 20mn 45s
Bit rate mode : Constant
Bit rate : 256 Kbps
Channel(s) : 2 channels
Channel positions : Front: L R
Sampling rate : 48.0 KHz
Bit depth : 16 bits
Compression mode : Lossy
Stream size : 38.0 MiB (4%)
Text
ID : 189 (0xBD)-32 (0x20)
Format : RLE
Format/Info : Run-length encoding
Muxing mode : DVD-Video
Delay relative to video : 3s 400ms
Menu

DVD Info

Title: They Came from Beyond Space_1967_DVD5 R2
Size: 3.95 Gb ( 4 146 736,00 KBytes ) - DVD-5
Enabled regions: 1, 2, 3, 4, 5, 6, 7, 8
VTS_01 :
Play Length: 00:00:01
Video: PAL 16:9 (720x576) VBR, Auto Letterboxed
VTS_02 :
Play Length: 01:21:42
Video: PAL 16:9 (720x576) VBR, Auto Letterboxed
Audio:
English, AC3, 2/0 (L,R) ch, 256 kbps, Delay 0 mSec
Subtitles:
Russian
VTS_03 :
Play Length: 00:00:00
Video: PAL 16:9 (720x576) VBR, Auto Letterboxed
Audio:
Not specified (Dolby AC3, 2 ch)
* Menus Information *
VIDEO_TS Menu
Video:
PAL 16:9 (720x576) VBR
Auto Letterboxed
Audio:
Not specified (Dolby AC3, 2 ch)
English Language Unit :
Title Menu
VTS_01 Menu
Video:
PAL 16:9 (720x576) VBR
Auto Letterboxed
English Language Unit :
Root Menu
VTS_02 Menu
Video:
PAL 16:9 (720x576) VBR
Auto Letterboxed
Audio:
Not specified (Dolby AC3, 2 ch)
English Language Unit :
Root Menu
VTS_03 Menu
Video:
NTSC 4:3 (720x480) VBR
Auto Pan&Scan, Auto Letterboxed
English Language Unit :
Root Menu

П. О.

PgcDemux 1.2.0.5 - разделение компонентов диска на файлы;
MaestroSBT-Unicode-2.6.2.1 - Создание субтитров
DVDSubEdit -- Version 1.52 - Правка (цветовых схем) субтитров
MuxMan DVD authoring Professional 1.4.4 - мультиплексирование и авторинг DVD;
DVDRemake Pro 3.6.4 - реавторинг DVD;
DVD Shrink 3.2 - Сэмпл
VLC - Скриншоты-
-
- -
-
-MuxMan version 1.4.4
new project database size 400, base 25e0018.
new pointer management list size 50.
new clipboard database size 20, base 2ee890.
01:38:45 Begin m2v survey of C:\Temp\COSMOS\VideoFile.m2v.
Accepted audio C:\Temp\COSMOS\AudioFile_80.ac3
expanded database to 602 entries.
expanded database to 804 entries.
expanded database to 1006 entries.
expanded database to 1208 entries.
expanded database to 1410 entries.
expanded database to 1612 entries.
01:40:45 End survey of C:\Temp\COSMOS\VideoFile.m2v.
01:47:50 Begin multiplex VTS01.
Title Segment List
Segment_1 non-seamless
Encoded stream 20 is script stream 1.
Buffering audio track 1 file C:\Temp\COSMOS\AudioFile_80.ac3.
Maximum audio duration 245132 fields.
Multiplex delay set to 25257.
new graphics buffer size 414720.
Positioned C:\Temp\COSMOS\VideoFile.m2v to 00:00:00:00
Starting scene Segment_1_scn1 at 00:00:00:00
SPU buffer size 12288.
Starting scene Segment_1_scn2 at 00:09:58:01
Starting scene Segment_1_scn3 at 00:22:59:01
Starting scene Segment_1_scn4 at 00:32:56:05
Starting scene Segment_1_scn5 at 00:44:35:18
Starting scene Segment_1_scn6 at 00:54:38:00
Starting scene Segment_1_scn7 at 01:05:31:15
Starting scene Segment_1_scn8 at 01:16:01:09
SeqEnd at ED6DC454.
Bytes remaining in buffer = 0.
Bitrate - avg: 6891546, min: 6690133 (lba 448726), max: 7099733 (lba 39941).
Shortest GOP has 2 fields, longest GOP has 24 fields.
Fields: 245132, VOBU: 10115, Sectors: 2062181.
01:55:15 Begin multiplex VMG.
01:55:15 End multiplex.

Скриншоты меню

[Profile]  [PM] 
Display posts:    
Reply to topic

Current time is: 13-Apr 23:57

All times are UTC + 2



You cannot post new topics in this forum
You cannot reply to topics in this forum
You cannot edit your posts in this forum
You cannot delete your posts in this forum
You cannot vote in polls in this forum
You cannot attach files in this forum
You cannot download files in this forum