Прогулка по солнечному свету / Walking on Sunshine (Макс Джива, Дания Пасквини / Max Giwa, Dania Pasquini) [2014, Великобритания, мюзикл, мелодрама, DVD5] R5 Dub

Reply to topic
 
Author
Message

Faust ®

Gender: Unknown

Longevity: 9 years 6 months

Posts: 14961

Reputation: 0 [+] [-]

Faust · Post 16-Sep-2014 00:25

[Quote] 

-Прогулка по солнечному свету / Walking on Sunshine -Страна: Великобритания
Студия: IM Global, Vertigo Films
Жанр: мюзикл, мелодрама
Год выпуска: 2014
Мировая премьера: 19 июня 2014
Российская премьера: 3 июля 2014, «Парадиз»
Дата выхода DVD: 16 сентября 2014, «Парадиз / Активижен»
Продолжительность: 01:33:09
Перевод: Профессиональный (дублированный) [Лицензия]
Cубтитры: нет
Оригинальная аудиодорожка: нет-Режиссер: Макс Джива, Дания Пасквини / Max Giwa, Dania Pasquini-В ролях: Ханна Артертон, Джулио Мария Беррути, Анабель Шолей, Грег Уайз, Леона Льюис, Кэти Брэнд, Дэнни Киррейн, Люк Хоуп, Mariola Jaworska, Шэйн Сэлтер-Описание: После красивого, бурного и стремительного романа Мэдди и Раф принимают решение пожениться. Мэдди счастлива. Она готовится к церемонии, приглашает гостей, среди которых — ее любимая сестра Тэйлор. Кто мог предположить, что между Рафом и Тэйлор была когда-то страстная любовь, которая, как оказалось, вовсе не угасла…-Бонусы: Скоро на DVD- -Релиз группы: -Качество: DVD5 R5
Формат: DVD-Video
Видео кодек: MPEG2
Аудио кодек: AC3
Видео: PAL 16:9 (720x576(0.657)) MPEG Video, 25,000 кадр/сек, 6817 Кбит/сек
Аудио: Russian (Dolby AC3, 6 ch) 384 Кбит/сек, 48,0 КГц--

DVDInfo

Title: Progulka.po.solnechnomu.svetu.2014.DVD5
Size: 4.30 Gb ( 4 509 852,00 KBytes ) - DVD-5
Enabled regions: 1, 2, 3, 4, 5, 6, 7, 8
VTS_01 :
Play Length: 01:33:09
Video: PAL 16:9 (720x576) VBR, Auto Letterboxed
Audio:
Russian (Dolby AC3, 6 ch)
VTS_02 :
Play Length: 00:06:45
Video: PAL 16:9 (720x576) VBR, Auto Letterboxed
Audio:
Not specified (Dolby AC3, 2 ch)
* Menus Information *
VIDEO_TS Menu
Video:
PAL 16:9 (720x576) VBR
Auto Pan&Scan
Audio:
Not specified (Dolby AC3, 2 ch)
Russian Language Unit :
Title Menu
VTS_01 Menu
Video:
PAL 16:9 (720x576) VBR
Auto Pan&Scan
Audio:
Not specified (Dolby AC3, 2 ch)
Russian Language Unit :
Root Menu
Chapter (PTT) Menu
VTS_02 Menu
Video:
NTSC 4:3 (720x480) VBR
Auto Pan&Scan, Auto Letterboxed
Russian Language Unit :
Root Menu

MediaInfo

Общее
Полное имя : F:\Новинки 2014\Progulka.po.solnechnomu.svetu.2014.DVD5\VIDEO_TS\VTS_01_1.VOB
Формат : MPEG-PS
Размер файла : 1024 Мбайт
Продолжительность : 19 м.
Режим общего битрейта : Переменный
Общий поток : 7347 Кбит/сек
Библиотека кодирования : (c) 1998-2007 Womble Multimedia, Inc. / MPEG Video Wizard (04/2007) / Mar 29 2007
Видео
Идентификатор : 224 (0xE0)
Формат : MPEG Video
Версия формата : Version 2
Профиль формата : Main@Main
Параметр BVOP формата : Да
Параметр матрицы формата : Выборочная
Параметр GOP формата : M=3, N=12
Продолжительность : 19 м.
Вид битрейта : Переменный
Битрейт : 6817 Кбит/сек
Максимальный битрейт : 9000 Кбит/сек
Ширина : 720 пикселей
Высота : 576 пикселей
Соотношение сторон : 16:9
Частота кадров : 25,000 кадров/сек
Стандарт вещания : PAL
Цветовое пространство : YUV
Субдискретизация насыщенности : 4:2:0
Битовая глубина : 8 бит
Тип развёртки : Прогрессивная
Порядок развёртки : Верхнее поле первое
Метод сжатия : С потерями
Бит/(Пиксели*Кадры) : 0.657
Временной код первого кадра : 00:00:00:00
Оригинал временного кода : Group of pictures header
Размер потока : 950 Мбайт (93%)
Библиотека кодирования : (c) 1998-2007 Womble Multimedia, Inc. / MPEG Video Wizard (04/2007) / Mar 29 2007
Аудио
Идентификатор : 189 (0xBD)-128 (0x80)
Формат : AC-3
Формат/Информация : Audio Coding 3
Расширение режима : CM (complete main)
Параметр Endianness формата : Big
Режим смешивания : DVD-Video
Продолжительность : 19 м.
Вид битрейта : Постоянный
Битрейт : 384 Кбит/сек
Каналы : 6 каналов
Расположение каналов : Front: L C R, Side: L R, LFE
Частота : 48,0 КГц
Битовая глубина : 16 бит
Метод сжатия : С потерями
Размер потока : 53,5 Мбайт (5%)

Скриншоты меню

Скриншоты фильма


-
-Раздача от группы:
[Profile]  [PM] 
Display posts:    
Reply to topic

Current time is: 14-Apr 22:17

All times are UTC + 2



You cannot post new topics in this forum
You cannot reply to topics in this forum
You cannot edit your posts in this forum
You cannot delete your posts in this forum
You cannot vote in polls in this forum
You cannot attach files in this forum
You cannot download files in this forum