Адский мотель / Motel Hell (Кевин Коннор / Kevin Connor) [1980, США, ужасы, комедия, DVD5 (Custom)] [16:9 NTSC R1] VO (Андрей Васильев) + Sub Eng Fre Spa + Original Eng + DUB Fre Spa

Reply to topic
 
Author
Message

Faust ®

Gender: Unknown

Longevity: 9 years 6 months

Posts: 14961

Reputation: 0 [+] [-]

Faust · Post 17-Sep-2014 00:25

[Quote] 

Адский мотель / Motel Hell
16:9 NTSC R1
Слоган: «You might just die...laughing!» Страна: США
Студия: Camp Hill
Жанр: ужасы, комедия
Год выпуска: 1980
Продолжительность: 01:41:06
Перевод: Одноголосый закадровый - Андрей Васильев
Cубтитры: английские, французские, испанские, английские[CC]
Оригинальная аудиодорожка: английский
Режиссер: Кевин Коннор / Kevin Connor
В ролях: Рори Кэлхун, Пол Линке, Нэнси Парсонс, Нина Аксельрод, Вулфман Джек, Илэйн Джойс, Дик Кертис, Моника Ст. Пьер, Розэнн Кейтон, Е. Хэмптон Бигл ...
Описание: Винсент и его сестра Ида являются собственниками придорожного мотеля, а также предприятия по производству колбасных изделий, пользующегося хорошей репутацией. Когда Винсента спрашивают рецепт такого вкусного копченого мяса, он говорит, что его происхождение восходит к его бабушке, которая любила окуривать дымом все, что движется и шевелится. Но внучок довел бабушкину страсть до крайности.
Оказывается, ночью Винсент и Ида избивают до полусмерти поселяющихся в мотеле туристов, после чего закапывают их живыми в своем саду таким образом, чтобы на поверхности оказывались только головы. Они окуривают их ароматным дымком, откармливают, а по прошествии некоторого времени трупы становятся первоначальным материалом их знаменитого копченого мяса…
Доп. информация: Диск собран из Motel Hell_1980_DVD5 R1 найденного в сети. (Который на постере)
Бонусы: трейлер.
Меню: Статичное, неозвученное, на английском.Меню неотредактировано, переключение звуковых дорожек с пульта.
Фильм автоматический стартует с рус. звук. дорожкой.
--Спасибо за рус. одноголосый edich2-- --Motel Hell_1980_DVD5 R1_Sample_.rar--Тип релиза: DVD5 (Custom)
Контейнер: DVD-Video
Видео: NTSC 16:9 (720x480) VBR Auto Letterboxed, ~ 5987.63 kbps avg
Аудио 1: English, AC3, 2/0 (L,R) ch, 192 kbps, Delay 0 mSec
Аудио 2: Francais, AC3, 2/0 (L,R) ch, 192 kbps, Delay 0 mSec
Аудио 3: Espanol, AC3, 2/0 (L,R) ch, 192 kbps, Delay 0 mSec
Аудио 4: Russian, AC3, 2/0 (L,R) ch, 192 kbps, Delay 0 mSec
Формат субтитров: prerendered (DVD/IDX+SUB), СС (Closed Captions)

MediaInfo

General
Complete name : Motel Hell_1980_DVD5 R1\VIDEO_TS\VTS_01_2.VOB
Format : MPEG-PS
File size : 1 024 MiB
Duration : 25mn 38s
Overall bit rate mode : Variable
Overall bit rate : 5 583 Kbps
Video
ID : 224 (0xE0)
Format : MPEG Video
Format version : Version 2
Format profile : Main@Main
Format settings, BVOP : Yes
Format settings, Matrix : Custom
Format settings, GOP : Variable
Duration : 25mn 38s
Bit rate mode : Variable
Bit rate : 4 704 Kbps
Maximum bit rate : 9 802 Kbps
Width : 720 pixels
Height : 480 pixels
Display aspect ratio : 16:9
Frame rate : 23.976 fps
Standard : NTSC
Color space : YUV
Chroma subsampling : 4:2:0
Bit depth : 8 bits
Scan type : Progressive
Scan order : 2:3 Pulldown
Compression mode : Lossy
Bits/(Pixel*Frame) : 0.568
Stream size : 863 MiB (84%)
Audio #1
ID : 189 (0xBD)-128 (0x80)
Format : AC-3
Format/Info : Audio Coding 3
Format profile : Dolby Digital
Mode extension : CM (complete main)
Format settings, Endianness : Big
Muxing mode : DVD-Video
Duration : 25mn 38s
Bit rate mode : Constant
Bit rate : 192 Kbps
Channel(s) : 2 channels
Channel positions : Front: L R
Sampling rate : 48.0 KHz
Bit depth : 16 bits
Compression mode : Lossy
Delay relative to video : -443ms
Stream size : 35.2 MiB (3%)
Audio #2
ID : 189 (0xBD)-129 (0x81)
Format : AC-3
Format/Info : Audio Coding 3
Mode extension : CM (complete main)
Format settings, Endianness : Big
Muxing mode : DVD-Video
Duration : 25mn 38s
Bit rate mode : Constant
Bit rate : 192 Kbps
Channel(s) : 2 channels
Channel positions : Front: L R
Sampling rate : 48.0 KHz
Bit depth : 16 bits
Compression mode : Lossy
Delay relative to video : -443ms
Stream size : 35.2 MiB (3%)
Audio #3
ID : 189 (0xBD)-130 (0x82)
Format : AC-3
Format/Info : Audio Coding 3
Format profile : Dolby Digital
Mode extension : CM (complete main)
Format settings, Endianness : Big
Muxing mode : DVD-Video
Duration : 25mn 38s
Bit rate mode : Constant
Bit rate : 192 Kbps
Channel(s) : 2 channels
Channel positions : Front: L R
Sampling rate : 48.0 KHz
Bit depth : 16 bits
Compression mode : Lossy
Delay relative to video : -443ms
Stream size : 35.2 MiB (3%)
Audio #4
ID : 189 (0xBD)-131 (0x83)
Format : AC-3
Format/Info : Audio Coding 3
Mode extension : CM (complete main)
Format settings, Endianness : Big
Muxing mode : DVD-Video
Duration : 25mn 38s
Bit rate mode : Constant
Bit rate : 192 Kbps
Channel(s) : 2 channels
Channel positions : Front: L R
Sampling rate : 48.0 KHz
Bit depth : 16 bits
Compression mode : Lossy
Delay relative to video : -443ms
Stream size : 35.2 MiB (3%)
Text #1
ID : 189 (0xBD)-32 (0x20)
Format : RLE
Format/Info : Run-length encoding
Muxing mode : DVD-Video
Duration : 25mn 30s
Delay relative to video : 3s 187ms
Text #2
ID : 189 (0xBD)-33 (0x21)
Format : RLE
Format/Info : Run-length encoding
Muxing mode : DVD-Video
Duration : 25mn 30s
Delay relative to video : 3s 187ms
Text #3
ID : 189 (0xBD)-34 (0x22)
Format : RLE
Format/Info : Run-length encoding
Muxing mode : DVD-Video
Duration : 25mn 30s
Delay relative to video : 3s 187ms
Text #4
ID : 224 (0xE0)-CC3
Format : EIA-608
Muxing mode, more info : Muxed in Video #1
Bit rate mode : Constant
Stream size : 0.00 Byte (0%)
Menu

DVD Info

Title: Motel Hell_1980_DVD5 R1
Size: 4.33 Gb ( 4 541 704,00 KBytes ) - DVD-5
Enabled regions: 1, 2, 3, 4, 5, 6, 7, 8
VTS_01 :
Play Length: 01:41:06+00:00:00
Video: NTSC 16:9 (720x480) VBR, Auto Letterboxed
Audio:
English, AC3, 2/0 (L,R) ch, 192 kbps, Delay 0 mSec
Francais, AC3, 2/0 (L,R) ch, 192 kbps, Delay 0 mSec
Espanol, AC3, 2/0 (L,R) ch, 192 kbps, Delay 0 mSec
Russian, AC3, 2/0 (L,R) ch, 192 kbps, Delay 0 mSec
Subtitles:
English
Francais
Espanol
VTS_02 :
Play Length: 00:00:30+00:00:09
Video: NTSC 16:9 (720x480) VBR, Auto Pan&Scan
Audio:
English (Dolby AC3, 6 ch)
VTS_03 :
Play Length: 00:02:40
Video: NTSC 16:9 (720x480) VBR, Auto Letterboxed
Audio:
English (Dolby AC3, 2 ch)
* Menus Information *
VIDEO_TS Menu
Video:
NTSC 4:3 (720x480) VBR
Auto Pan&Scan, Auto Letterboxed
English Language Unit :
Title Menu
VTS_01 Menu
Video:
NTSC 16:9 (720x480) VBR
Auto Pan&Scan
English Language Unit :
Root Menu
Subpicture Menu
Audio Menu
Chapter (PTT) Menu
VTS_02 Menu
Video:
NTSC 4:3 (720x480) VBR
Auto Pan&Scan, Auto Letterboxed
English Language Unit :
Root Menu
VTS_03 Menu
Video:
NTSC 4:3 (720x480) VBR
Auto Pan&Scan, Auto Letterboxed
English Language Unit :
Root Menu

П. О.

PgcDemux 1.2.0.5 - разделение компонентов диска на файлы;
BeSweetv1.5b31+BeLight 0.21 - AC3 -> Wav
Sound Forge pro 10 - Wav -> AC3
MuxMan DVD authoring Professional 1.4.4 - мультиплексирование и авторинг DVD;
DVDRemake Pro 3.6.4 - реавторинг DVD;
DVD Shrink 3.2 - Сэмпл
VLC - Скриншоты-
-
-

-
-
-BeSweet v1.5b31 by DSPguru.
--------------------------
Using azid.dll v1.9 (b922) by Midas (midas@egon.gyaloglo.hu).
Logging start : 09/15/14 , 20:39:10.
BeSweet.exe -core( -input C:\Temp\HELL\AudioFile_80.ac3 -output C:\Temp\HELL\AudioFile_80.wav -2ch -logfile C:\Temp\HELL\AudioFile_80.log ) -azid( -s mono -c normal -L -3db )
[00:00:00:000] +------- BeSweet -----
[00:00:00:000] | Input : C:\Temp\HELL\AudioFile_80.ac3
[00:00:00:000] | Output: C:\Temp\HELL\AudioFile_80.wav
[00:00:00:000] | Floating-Point Process: No
[00:00:00:000] +-------- AZID -------
[00:00:00:000] | Input Channels Mode: 2/0, Bitrate: 192kbps
[00:00:00:000] | Output Stereo mode: Dolby surround 2 compatible
[00:00:00:000] | Total Gain: 0.000dB, Compression: Normal
[00:00:00:000] | LFE levels: To LR -3.0dB, To LFE 0.0dB
[00:00:00:000] | Center mix level: BSI
[00:00:00:000] | Surround mix level: BSI
[00:00:00:000] | Dialog normalization: No
[00:00:00:000] | Rear channels filtering: No
[00:00:00:000] | Source Sample-Rate: 48.0KHz
[00:00:00:000] +---------------------
[01:41:12:832] Conversion Completed !
[01:41:12:832] Actual Avg. Bitrate : 121kbps
[00:01:39:000]
[Profile]  [PM] 
Display posts:    
Reply to topic

Current time is: 14-Apr 22:47

All times are UTC + 2



You cannot post new topics in this forum
You cannot reply to topics in this forum
You cannot edit your posts in this forum
You cannot delete your posts in this forum
You cannot vote in polls in this forum
You cannot attach files in this forum
You cannot download files in this forum