Полицейская академия 3: Переподготовка / Police Academy 3: Back in Training (Джерри Пэрис / Jerry Paris) [1986, США, боевик, комедия, BD>DVD9(Custom)] Dub (Варус-Видео) + 3x DVO (Карусель, НТВ, Universal channel) + 3x AVO + Eng + Sub

Reply to topic
 
Author
Message

Faust ®

Gender: Unknown

Longevity: 9 years 6 months

Posts: 14955

Reputation: 0 [+] [-]

Faust · Post 18-Sep-2014 00:20

[Quote] 

Полицейская академия 3: Переподготовка / Police Academy 3: Back in Training
Страна: США
Студия: Police Academy Productions, Warner Bros. Pictures
Жанр: Комедия, криминал
Год выпуска: 1986
Продолжительность: 01:23:43
Перевод: Профессиональный дублированый, Варус Видео
Перевод 2: Профессиональный двухголосый, Карусель
Перевод 3: Профессиональный двухголосый, НТВ
Перевод 4: Профессиональный двухголосый, Universal Channel
Перевод 5: Авторский, А. Гаврилов
Перевод 6: Авторский, М. Иванов
Перевод 7: Авторский, Л. Володарский
Cубтитры: английские SDH
Оригинальная аудиодорожка: английский
Режиссер: Джерри Пэрис / Jerry Paris
В ролях: Стив Гуттенберг, Бубба Смит, Дэвид Граф, Майкл Уинслоу, Мэрион Рэмси, Лесли Истербрук, Арт Метрано, Тим Казурински, Боб Голдтуэйт, Джордж Гейнс, Шон Уэзерли, Скотт Томсон, Брант фон Хоффман, Брюс Малер, Эд Нельсон, Дебрали Скотт, Лэнс Кинси, Брайан Точи, Эндрю Пэрис, Джордж Р. Робертсон, Джорджина Спелвин, Дэвид Хубанд, Дэвид Джеймс Эллиотт, Артур Батанидес, Джек Крили, Рита Такетт, Чес Лоутер, Лин Джексон, Мэри Энн Коулз, Сэм Стоун, Грант Коуэн, Брюс Пири, Даг Леннокс, Тедди Эбнер, Сьюзэн Дерек, Марсия Уоткинс, Пэм Хайатт, Фран Гебхард, Лес Ниренберг, Глория Саммерс, Фред Ливингстоун
Описание: Правительство заявило, что только одна из двух полицейских школ может продолжать свою работу. Начинается жестокое состязание на выживание - ни одна из академий не желает закрываться, в дело идут все средства. Махони, Хайтауэр, Тэклберри, Джонс, Хукс и Кэллагэн под командованием несгибаемого коменданта Лассарда, мобилизуют для спасения своей Альма Матер новую команду безнадежных рекрутов.
Меню: статичное на английском озвученое
Доп. информация: Звук, видео, BLU-RAY - скачан с другого трекера
Субтитры с BDRip
Картинки для меню и файл эпизодов с двд.
Видео сжато в Carbon Coder в CBR в один проход. Аудио получены с помощью программ
Tranzcode и SurCode for Dolby Digital
Диск собран с помощью DVDlabPRO

Спасибо:
VOLSHEBNIK за исходник.
dvdbox за двд
TEPM1HAT0P за Видео мануал по созданию BD>DVD
GarfieldX за инструкцию по обработке и пересжатию звуковых дорожек
Mikky72 за инструкцию по созданию видеодорожки для DVD (mpeg2) и
Авторинг DVD в программе DVDLab
Сэмпл:
https://www.sendspace.com/file/qdowqk
Тип релиза: DVD9 (Custom)
Контейнер: DVD-Video
Видео: NTSC 16:9 (720x480) VBR, Auto Letterboxed
Аудио 1: Русский AC3/ 2.0 / 48 kHz/ 192 kbps, Дубляж, Варус Видео
Аудио 2: Русский AC3/ 1.0 / 48 kHz/ 192 kbps, Двухголосый, Карусель
Аудио 3: Русский AC3/ 2.0 / 48 kHz/ 192 kbps, Двухголосый, НТВ
Аудио 4: Русский AC3/ 2.0 / 48 kHz/ 192 kbps, Двухголосый, Universal Channel
Аудио 5: Русский AC3/ 1.0 / 48 kHz/ 192 kbps, Авторский, Гаврилов
Аудио 6: Русский AC3/ 2.0 / 48 kHz/ 192 kbps, Авторский, Иванов
Аудио 7: Русский AC3/ 2.0 / 48 kHz/ 192 kbps, Авторский, Володарский
Аудио 8: Английский AC3/ 1.0 / 48 kHz/ 192 kbps, Английский оригинал
Формат субтитров: prerendered (DVD/IDX+SUB)

Информация по сборке

Используемый софт

Программы для разборки
tsMuxeR - разборка BDRemux
Mkvmerge - упаковка в mkv
Видео
ffmsindex - индексирование
AviSynth - обработка видео
Carbon Coder - кодирование видео
Работа со звуком
Tranzcode - извлечение WAW
SurCode for Dolby Digital - конвертация WAV ---> 1.0 AC3
Работа с меню и реавторинг
Adobe Photoshop - работа над меню
DVD-lab PRO 2 - реавторинг диска

BDInfo

Disc Title: POLICE_ACADEMY_3_HDCLUB_BY_VOLSHEBNIK
Disc Size: 21 839 440 258 bytes
Protection: AACS
BD-Java: Yes
BDInfo: 0.5.8
Notes:
BDINFO HOME:
Cinema Squid
http://www.cinemasquid.com/blu-ray/tools/bdinfo
INCLUDES FORUMS REPORT FOR:
AVS Forum Blu-ray Audio and Video Specifications Thread
http://www.avsforum.com/avs-vb/showthread.php?t=1155731
********************
PLAYLIST: 00002.MPLS
********************
Total   Video
Title                                                           Codec   Length  Movie Size      Disc Size       Bitrate Bitrate Main Audio Track                          Secondary Audio Track
-----                                                           ------  ------- --------------  --------------  ------- ------- ------------------                        ---------------------
00002.MPLS                                                      AVC     1:23:43 21 214 869 504  21 839 440 258  33,78   26,92   DD AC3 2.0 192Kbps                        DTS-HD Master 1.0 1104Kbps (48kHz/24-bit)
DISC INFO:
Disc Title:     POLICE_ACADEMY_3_HDCLUB_BY_VOLSHEBNIK
Disc Size:      21 839 440 258 bytes
Protection:     AACS
BD-Java:        Yes
BDInfo:         0.5.8
PLAYLIST REPORT:
Name:                   00002.MPLS
Length:                 1:23:43.727 (h:m:s.ms)
Size:                   21 214 869 504 bytes
Total Bitrate:          33,78 Mbps
VIDEO:
Codec                   Bitrate             Description
-----                   -------             -----------
MPEG-4 AVC Video        26923 kbps          1080p / 23,976 fps / 16:9 / High Profile 4.1
AUDIO:
Codec                           Language        Bitrate         Description
-----                           --------        -------         -----------
Dolby Digital Audio             Russian         192 kbps        2.0 / 48 kHz / 192 kbps
DTS-HD Master Audio             Russian         1104 kbps       1.0 / 48 kHz / 1104 kbps / 24-bit (DTS Core: 1.0 / 48 kHz / 768 kbps / 24-bit)
Dolby Digital Audio             Russian         192 kbps        2.0 / 48 kHz / 192 kbps
Dolby Digital Audio             Russian         192 kbps        2.0 / 48 kHz / 192 kbps
Dolby Digital Audio             Russian         192 kbps        2.0 / 48 kHz / 192 kbps
DTS-HD Master Audio             Russian         1095 kbps       1.0 / 48 kHz / 1095 kbps / 24-bit (DTS Core: 1.0 / 48 kHz / 768 kbps / 24-bit)
Dolby Digital Audio             Russian         192 kbps        2.0 / 48 kHz / 192 kbps / DN -4dB
Dolby Digital Audio             Russian         192 kbps        2.0 / 48 kHz / 192 kbps
Dolby Digital Audio             Ukrainian       192 kbps        2.0 / 48 kHz / 192 kbps
DTS-HD Master Audio             English         1078 kbps       1.0 / 48 kHz / 1078 kbps / 24-bit (DTS Core: 1.0 / 48 kHz / 768 kbps / 24-bit)
SUBTITLES:
Codec                           Language        Bitrate         Description
-----                           --------        -------         -----------
Presentation Graphics           English         38,402 kbps
FILES:
Name            Time In         Length          Size            Total Bitrate
----            -------         ------          ----            -------------
00002.M2TS      0:00:00.000     1:23:43.727     21 214 869 504  33 783
CHAPTERS:
Number          Time In         Length          Avg Video Rate  Max 1-Sec Rate  Max 1-Sec Time  Max 5-Sec Rate  Max 5-Sec Time  Max 10Sec Rate  Max 10Sec Time  Avg Frame Size  Max Frame Size  Max Frame Time
------          -------         ------          --------------  --------------  --------------  --------------  --------------  --------------  --------------  --------------  --------------  --------------
1               0:00:00.000     0:08:02.607     26 196 kbps     37 770 kbps     00:00:03.795    31 516 kbps     00:00:15.974    29 636 kbps     00:00:16.015    136 564 bytes   418 939 bytes   00:00:02.168
2               0:08:02.607     0:03:16.529     26 872 kbps     37 794 kbps     00:08:17.872    30 418 kbps     00:09:42.290    29 684 kbps     00:09:42.790    140 098 bytes   380 900 bytes   00:08:57.453
3               0:11:19.136     0:02:59.846     27 440 kbps     33 558 kbps     00:12:52.480    29 825 kbps     00:12:52.480    28 861 kbps     00:11:27.520    143 059 bytes   338 736 bytes   00:11:22.765
4               0:14:18.983     0:06:37.688     26 989 kbps     32 684 kbps     00:19:48.061    29 775 kbps     00:14:21.902    28 827 kbps     00:14:21.819    140 706 bytes   376 810 bytes   00:14:22.027
5               0:20:56.672     0:03:24.287     26 409 kbps     35 570 kbps     00:21:38.714    28 543 kbps     00:21:04.846    27 884 kbps     00:21:24.950    137 687 bytes   424 015 bytes   00:21:39.548
6               0:24:20.959     0:02:58.595     26 962 kbps     35 234 kbps     00:25:44.960    29 583 kbps     00:24:23.086    28 722 kbps     00:24:44.399    140 568 bytes   292 229 bytes   00:25:57.764
7               0:27:19.554     0:03:40.511     27 227 kbps     35 683 kbps     00:27:31.900    31 229 kbps     00:27:28.104    29 722 kbps     00:27:28.438    141 951 bytes   392 098 bytes   00:27:36.529
8               0:31:00.066     0:03:14.986     26 772 kbps     33 539 kbps     00:31:04.404    28 806 kbps     00:33:27.463    28 389 kbps     00:33:27.463    139 579 bytes   332 232 bytes   00:33:29.674
9               0:34:15.053     0:02:19.055     26 146 kbps     31 317 kbps     00:34:55.259    28 083 kbps     00:34:16.679    27 447 kbps     00:34:15.053    136 315 bytes   321 381 bytes   00:34:56.094
10              0:36:34.108     0:01:37.222     26 709 kbps     35 025 kbps     00:37:25.660    28 194 kbps     00:37:31.123    27 542 kbps     00:37:25.660    139 250 bytes   273 135 bytes   00:37:25.701
11              0:38:11.330     0:04:23.638     26 953 kbps     36 466 kbps     00:41:57.264    29 297 kbps     00:42:24.917    29 139 kbps     00:42:22.790    140 519 bytes   340 563 bytes   00:41:10.217
12              0:42:34.969     0:02:56.885     26 448 kbps     30 523 kbps     00:43:02.413    27 667 kbps     00:42:38.764    27 237 kbps     00:42:38.389    137 889 bytes   288 282 bytes   00:43:14.216
13              0:45:31.854     0:02:16.928     27 439 kbps     36 832 kbps     00:46:31.455    32 595 kbps     00:46:29.620    30 264 kbps     00:46:31.455    143 052 bytes   404 121 bytes   00:46:31.497
14              0:47:48.782     0:03:08.938     26 538 kbps     31 622 kbps     00:49:23.085    28 041 kbps     00:47:50.867    27 452 kbps     00:49:23.085    138 357 bytes   305 300 bytes   00:47:58.417
15              0:50:57.721     0:04:34.315     26 481 kbps     32 393 kbps     00:55:30.035    28 364 kbps     00:51:00.724    27 570 kbps     00:50:59.056    138 062 bytes   306 287 bytes   00:51:04.895
16              0:55:32.037     0:01:36.596     26 864 kbps     30 673 kbps     00:55:42.005    28 351 kbps     00:55:42.005    27 931 kbps     00:56:44.984    140 057 bytes   297 126 bytes   00:55:35.915
17              0:57:08.633     0:04:49.789     26 193 kbps     33 482 kbps     01:00:27.749    28 421 kbps     01:01:47.620    27 253 kbps     01:01:42.407    136 556 bytes   299 070 bytes   01:01:39.987
18              1:01:58.423     0:04:09.332     27 184 kbps     35 538 kbps     01:03:35.895    29 699 kbps     01:05:49.278    28 965 kbps     01:03:16.959    141 725 bytes   368 450 bytes   01:02:02.343
19              1:06:07.755     0:05:30.705     27 929 kbps     38 471 kbps     01:10:41.695    33 156 kbps     01:10:48.744    30 628 kbps     01:10:43.280    145 609 bytes   347 669 bytes   01:09:08.727
20              1:11:38.460     0:02:19.180     27 904 kbps     41 317 kbps     01:13:20.771    35 118 kbps     01:13:20.312    31 552 kbps     01:13:15.307    145 478 bytes   403 165 bytes   01:12:49.698
21              1:13:57.641     0:06:01.903     28 304 kbps     39 899 kbps     01:16:45.017    32 385 kbps     01:16:41.388    31 241 kbps     01:15:37.366    147 563 bytes   381 465 bytes   01:16:31.378
22              1:19:59.544     0:03:38.176     26 376 kbps     35 252 kbps     01:20:10.931    28 347 kbps     01:20:07.427    27 379 kbps     01:21:30.677    137 512 bytes   422 016 bytes   01:23:37.679
23              1:23:37.721     0:00:06.005     15 617 kbps     30 489 kbps     01:23:40.014    18 734 kbps     01:23:37.721    0 kbps          00:00:00.000    82 567 bytes    422 625 bytes   01:23:40.181
STREAM DIAGNOSTICS:
File            PID             Type            Codec           Language                Seconds                 Bitrate                 Bytes           Packets
----            ---             ----            -----           --------                --------------          --------------          -------------   -----
00002.M2TS      4113 (0x1011)   0x1B            AVC                                     5023,644                26 923                  16 906 646 532  91 954 836
00002.M2TS      4352 (0x1100)   0x81            AC3             rus (Russian)           5023,644                192                     120 580 608     785 030
00002.M2TS      4353 (0x1101)   0x86            DTS-HD MA       rus (Russian)           5023,644                1 104                   693 564 024     4 265 361
00002.M2TS      4354 (0x1102)   0x81            AC3             rus (Russian)           5023,644                192                     120 580 608     785 030
00002.M2TS      4355 (0x1103)   0x81            AC3             rus (Russian)           5023,644                192                     120 580 608     785 030
00002.M2TS      4356 (0x1104)   0x81            AC3             rus (Russian)           5023,644                192                     120 580 608     785 030
00002.M2TS      4357 (0x1105)   0x86            DTS-HD MA       rus (Russian)           5023,644                1 095                   687 615 476     4 244 493
00002.M2TS      4358 (0x1106)   0x81            AC3             rus (Russian)           5023,644                192                     120 592 896     785 110
00002.M2TS      4359 (0x1107)   0x81            AC3             rus (Russian)           5023,644                192                     120 580 608     785 030
00002.M2TS      4360 (0x1108)   0x81            AC3             ukr (Ukrainian)         5023,644                192                     120 580 608     785 030
00002.M2TS      4361 (0x1109)   0x86            DTS-HD MA       eng (English)           5023,644                1 078                   676 912 276     4 228 254
00002.M2TS      4608 (0x1200)   0x90            PGS             eng (English)           5023,644                38                      24 115 033      137 524
QUICK SUMMARY:
Disc Title: POLICE_ACADEMY_3_HDCLUB_BY_VOLSHEBNIK
Disc Size: 21 839 440 258 bytes
Protection: AACS
BD-Java: Yes
Playlist: 00002.MPLS
Size: 21 214 869 504 bytes
Length: 1:23:43.727
Total Bitrate: 33,78 Mbps
Video: MPEG-4 AVC Video / 26923 kbps / 1080p / 23,976 fps / 16:9 / High Profile 4.1
Audio: Russian / Dolby Digital Audio / 2.0 / 48 kHz / 192 kbps
Audio: Russian / DTS-HD Master Audio / 1.0 / 48 kHz / 1104 kbps / 24-bit (DTS Core: 1.0 / 48 kHz / 768 kbps / 24-bit)
Audio: Russian / Dolby Digital Audio / 2.0 / 48 kHz / 192 kbps
Audio: Russian / Dolby Digital Audio / 2.0 / 48 kHz / 192 kbps
Audio: Russian / Dolby Digital Audio / 2.0 / 48 kHz / 192 kbps
Audio: Russian / DTS-HD Master Audio / 1.0 / 48 kHz / 1095 kbps / 24-bit (DTS Core: 1.0 / 48 kHz / 768 kbps / 24-bit)
Audio: Russian / Dolby Digital Audio / 2.0 / 48 kHz / 192 kbps / DN -4dB
Audio: Russian / Dolby Digital Audio / 2.0 / 48 kHz / 192 kbps
Audio: Ukrainian / Dolby Digital Audio / 2.0 / 48 kHz / 192 kbps
Audio: English / DTS-HD Master Audio / 1.0 / 48 kHz / 1078 kbps / 24-bit (DTS Core: 1.0 / 48 kHz / 768 kbps / 24-bit)
Subtitle: English / 38,402 kbps
********************
PLAYLIST: 00003.MPLS
********************
Total   Video
Title                                                           Codec   Length  Movie Size      Disc Size       Bitrate Bitrate Main Audio Track                          Secondary Audio Track
-----                                                           ------  ------- --------------  --------------  ------- ------- ------------------                        ---------------------
00003.MPLS                                                      AVC     0:08:15 476 178 432     21 839 440 258  7,69    4,93    DD AC3 2.0 192Kbps
DISC INFO:
Disc Title:     POLICE_ACADEMY_3_HDCLUB_BY_VOLSHEBNIK
Disc Size:      21 839 440 258 bytes
Protection:     AACS
BD-Java:        Yes
BDInfo:         0.5.8
PLAYLIST REPORT:
Name:                   00003.MPLS
Length:                 0:08:15.695 (h:m:s.ms)
Size:                   476 178 432 bytes
Total Bitrate:          7,69 Mbps
VIDEO:
Codec                   Bitrate             Description
-----                   -------             -----------
MPEG-4 AVC Video        4929 kbps           480i / 29,970 fps / 4:3 / High Profile 4.0
AUDIO:
Codec                           Language        Bitrate         Description
-----                           --------        -------         -----------
Dolby Digital Audio             English         192 kbps        2.0 / 48 kHz / 192 kbps / DN -4dB / Dolby Surround
Dolby Digital Audio             English         192 kbps        2.0 / 48 kHz / 192 kbps / DN -4dB / Dolby Surround
Dolby Digital Audio             English         192 kbps        2.0 / 48 kHz / 192 kbps / DN -4dB / Dolby Surround
Dolby Digital Audio             English         192 kbps        2.0 / 48 kHz / 192 kbps / DN -4dB / Dolby Surround
Dolby Digital Audio             English         192 kbps        2.0 / 48 kHz / 192 kbps / DN -4dB / Dolby Surround
Dolby Digital Audio             English         192 kbps        2.0 / 48 kHz / 192 kbps / DN -4dB / Dolby Surround
Dolby Digital Audio             English         192 kbps        2.0 / 48 kHz / 192 kbps / DN -4dB / Dolby Surround
Dolby Digital Audio             English         192 kbps        2.0 / 48 kHz / 192 kbps / DN -4dB / Dolby Surround
Dolby Digital Audio             English         192 kbps        2.0 / 48 kHz / 192 kbps / DN -4dB / Dolby Surround
Dolby Digital Audio             English         192 kbps        2.0 / 48 kHz / 192 kbps / DN -4dB / Dolby Surround
SUBTITLES:
Codec                           Language        Bitrate         Description
-----                           --------        -------         -----------
Presentation Graphics           English         20,178 kbps
FILES:
Name            Time In         Length          Size            Total Bitrate
----            -------         ------          ----            -------------
00003.M2TS      0:00:00.000     0:08:15.695     476 178 432     7 685
CHAPTERS:
Number          Time In         Length          Avg Video Rate  Max 1-Sec Rate  Max 1-Sec Time  Max 5-Sec Rate  Max 5-Sec Time  Max 10Sec Rate  Max 10Sec Time  Avg Frame Size  Max Frame Size  Max Frame Time
------          -------         ------          --------------  --------------  --------------  --------------  --------------  --------------  --------------  --------------  --------------  --------------
1               0:00:00.000     0:08:09.555     4 935 kbps      11 291 kbps     00:03:03.216    8 809 kbps      00:03:02.415    7 404 kbps      00:03:02.415    20 581 bytes    75 319 bytes    00:00:37.170
2               0:08:09.555     0:00:06.139     4 450 kbps      7 770 kbps      00:08:12.925    4 650 kbps      00:08:09.555    0 kbps          00:00:00.000    18 661 bytes    75 440 bytes    00:08:13.392
STREAM DIAGNOSTICS:
File            PID             Type            Codec           Language                Seconds                 Bitrate                 Bytes           Packets
----            ---             ----            -----           --------                --------------          --------------          -------------   -----
00003.M2TS      4113 (0x1011)   0x1B            AVC                                     495,628                 4 930                   305 406 771     1 675 999
00003.M2TS      4352 (0x1100)   0x81            AC3             eng (English)           495,628                 192                     11 897 856      77 460
00003.M2TS      4353 (0x1101)   0x81            AC3             eng (English)           495,628                 192                     11 897 856      77 460
00003.M2TS      4354 (0x1102)   0x81            AC3             eng (English)           495,628                 192                     11 897 856      77 460
00003.M2TS      4355 (0x1103)   0x81            AC3             eng (English)           495,628                 192                     11 897 856      77 460
00003.M2TS      4356 (0x1104)   0x81            AC3             eng (English)           495,628                 192                     11 897 856      77 460
00003.M2TS      4357 (0x1105)   0x81            AC3             eng (English)           495,628                 192                     11 897 856      77 460
00003.M2TS      4358 (0x1106)   0x81            AC3             eng (English)           495,628                 192                     11 897 856      77 460
00003.M2TS      4359 (0x1107)   0x81            AC3             eng (English)           495,628                 192                     11 897 856      77 460
00003.M2TS      4360 (0x1108)   0x81            AC3             eng (English)           495,628                 192                     11 897 856      77 460
00003.M2TS      4361 (0x1109)   0x81            AC3             eng (English)           495,628                 192                     11 897 856      77 460
00003.M2TS      4608 (0x1200)   0x90            PGS             eng (English)           495,628                 20                      1 250 266       7 574
QUICK SUMMARY:
Disc Title: POLICE_ACADEMY_3_HDCLUB_BY_VOLSHEBNIK
Disc Size: 21 839 440 258 bytes
Protection: AACS
BD-Java: Yes
Playlist: 00003.MPLS
Size: 476 178 432 bytes
Length: 0:08:15.695
Total Bitrate: 7,69 Mbps
Video: MPEG-4 AVC Video / 4929 kbps / 480i / 29,970 fps / 4:3 / High Profile 4.0
Audio: English / Dolby Digital Audio / 2.0 / 48 kHz / 192 kbps / DN -4dB / Dolby Surround
Audio: English / Dolby Digital Audio / 2.0 / 48 kHz / 192 kbps / DN -4dB / Dolby Surround
Audio: English / Dolby Digital Audio / 2.0 / 48 kHz / 192 kbps / DN -4dB / Dolby Surround
Audio: English / Dolby Digital Audio / 2.0 / 48 kHz / 192 kbps / DN -4dB / Dolby Surround
Audio: English / Dolby Digital Audio / 2.0 / 48 kHz / 192 kbps / DN -4dB / Dolby Surround
Audio: English / Dolby Digital Audio / 2.0 / 48 kHz / 192 kbps / DN -4dB / Dolby Surround
Audio: English / Dolby Digital Audio / 2.0 / 48 kHz / 192 kbps / DN -4dB / Dolby Surround
Audio: English / Dolby Digital Audio / 2.0 / 48 kHz / 192 kbps / DN -4dB / Dolby Surround
Audio: English / Dolby Digital Audio / 2.0 / 48 kHz / 192 kbps / DN -4dB / Dolby Surround
Audio: English / Dolby Digital Audio / 2.0 / 48 kHz / 192 kbps / DN -4dB / Dolby Surround
Subtitle: English / 20,178 kbps
********************
PLAYLIST: 00004.MPLS
********************
Total   Video
Title                                                           Codec   Length  Movie Size      Disc Size       Bitrate Bitrate Main Audio Track                          Secondary Audio Track
-----                                                           ------  ------- --------------  --------------  ------- ------- ------------------                        ---------------------
00004.MPLS                                                      AVC     0:01:27 83 097 600      21 839 440 258  7,63    4,90    DD AC3 2.0 192Kbps
DISC INFO:
Disc Title:     POLICE_ACADEMY_3_HDCLUB_BY_VOLSHEBNIK
Disc Size:      21 839 440 258 bytes
Protection:     AACS
BD-Java:        Yes
BDInfo:         0.5.8
PLAYLIST REPORT:
Name:                   00004.MPLS
Length:                 0:01:27.120 (h:m:s.ms)
Size:                   83 097 600 bytes
Total Bitrate:          7,63 Mbps
VIDEO:
Codec                   Bitrate             Description
-----                   -------             -----------
MPEG-4 AVC Video        4897 kbps           480i / 29,970 fps / 16:9 / High Profile 4.0
AUDIO:
Codec                           Language        Bitrate         Description
-----                           --------        -------         -----------
Dolby Digital Audio             English         192 kbps        2.0 / 48 kHz / 192 kbps / DN -4dB / Dolby Surround
Dolby Digital Audio             English         192 kbps        2.0 / 48 kHz / 192 kbps / DN -4dB / Dolby Surround
Dolby Digital Audio             English         192 kbps        2.0 / 48 kHz / 192 kbps / DN -4dB / Dolby Surround
Dolby Digital Audio             English         192 kbps        2.0 / 48 kHz / 192 kbps / DN -4dB / Dolby Surround
Dolby Digital Audio             English         192 kbps        2.0 / 48 kHz / 192 kbps / DN -4dB / Dolby Surround
Dolby Digital Audio             English         192 kbps        2.0 / 48 kHz / 192 kbps / DN -4dB / Dolby Surround
Dolby Digital Audio             English         192 kbps        2.0 / 48 kHz / 192 kbps / DN -4dB / Dolby Surround
Dolby Digital Audio             English         192 kbps        2.0 / 48 kHz / 192 kbps / DN -4dB / Dolby Surround
Dolby Digital Audio             English         192 kbps        2.0 / 48 kHz / 192 kbps / DN -4dB / Dolby Surround
Dolby Digital Audio             English         192 kbps        2.0 / 48 kHz / 192 kbps / DN -4dB / Dolby Surround
SUBTITLES:
Codec                           Language        Bitrate         Description
-----                           --------        -------         -----------
Presentation Graphics           English         0,161 kbps
FILES:
Name            Time In         Length          Size            Total Bitrate
----            -------         ------          ----            -------------
00004.M2TS      0:00:00.000     0:01:27.120     83 097 600      7 631
CHAPTERS:
Number          Time In         Length          Avg Video Rate  Max 1-Sec Rate  Max 1-Sec Time  Max 5-Sec Rate  Max 5-Sec Time  Max 10Sec Rate  Max 10Sec Time  Avg Frame Size  Max Frame Size  Max Frame Time
------          -------         ------          --------------  --------------  --------------  --------------  --------------  --------------  --------------  --------------  --------------  --------------
1               0:00:00.000     0:01:24.584     5 043 kbps      8 064 kbps      00:00:45.812    6 173 kbps      00:00:42.308    5 710 kbps      00:00:57.190    21 025 bytes    104 721 bytes   00:00:02.035
2               0:01:24.584     0:00:02.535     30 kbps         44 kbps         00:01:24.584    0 kbps          00:00:00.000    0 kbps          00:00:00.000    126 bytes       2 828 bytes     00:01:24.617
STREAM DIAGNOSTICS:
File            PID             Type            Codec           Language                Seconds                 Bitrate                 Bytes           Packets
----            ---             ----            -----           --------                --------------          --------------          -------------   -----
00004.M2TS      4113 (0x1011)   0x1B            AVC                                     87,054                  4 901                   53 328 891      292 698
00004.M2TS      4352 (0x1100)   0x81            AC3             eng (English)           87,054                  192                     2 092 032       13 620
00004.M2TS      4353 (0x1101)   0x81            AC3             eng (English)           87,054                  192                     2 092 032       13 620
00004.M2TS      4354 (0x1102)   0x81            AC3             eng (English)           87,054                  192                     2 092 032       13 620
00004.M2TS      4355 (0x1103)   0x81            AC3             eng (English)           87,054                  192                     2 092 032       13 620
00004.M2TS      4356 (0x1104)   0x81            AC3             eng (English)           87,054                  192                     2 092 032       13 620
00004.M2TS      4357 (0x1105)   0x81            AC3             eng (English)           87,054                  192                     2 092 032       13 620
00004.M2TS      4358 (0x1106)   0x81            AC3             eng (English)           87,054                  192                     2 092 032       13 620
00004.M2TS      4359 (0x1107)   0x81            AC3             eng (English)           87,054                  192                     2 092 032       13 620
00004.M2TS      4360 (0x1108)   0x81            AC3             eng (English)           87,054                  192                     2 092 032       13 620
00004.M2TS      4361 (0x1109)   0x81            AC3             eng (English)           87,054                  192                     2 092 032       13 620
00004.M2TS      4608 (0x1200)   0x90            PGS             eng (English)           87,054                  0                       1 754           17
QUICK SUMMARY:
Disc Title: POLICE_ACADEMY_3_HDCLUB_BY_VOLSHEBNIK
Disc Size: 21 839 440 258 bytes
Protection: AACS
BD-Java: Yes
Playlist: 00004.MPLS
Size: 83 097 600 bytes
Length: 0:01:27.120
Total Bitrate: 7,63 Mbps
Video: MPEG-4 AVC Video / 4897 kbps / 480i / 29,970 fps / 16:9 / High Profile 4.0
Audio: English / Dolby Digital Audio / 2.0 / 48 kHz / 192 kbps / DN -4dB / Dolby Surround
Audio: English / Dolby Digital Audio / 2.0 / 48 kHz / 192 kbps / DN -4dB / Dolby Surround
Audio: English / Dolby Digital Audio / 2.0 / 48 kHz / 192 kbps / DN -4dB / Dolby Surround
Audio: English / Dolby Digital Audio / 2.0 / 48 kHz / 192 kbps / DN -4dB / Dolby Surround
Audio: English / Dolby Digital Audio / 2.0 / 48 kHz / 192 kbps / DN -4dB / Dolby Surround
Audio: English / Dolby Digital Audio / 2.0 / 48 kHz / 192 kbps / DN -4dB / Dolby Surround
Audio: English / Dolby Digital Audio / 2.0 / 48 kHz / 192 kbps / DN -4dB / Dolby Surround
Audio: English / Dolby Digital Audio / 2.0 / 48 kHz / 192 kbps / DN -4dB / Dolby Surround
Audio: English / Dolby Digital Audio / 2.0 / 48 kHz / 192 kbps / DN -4dB / Dolby Surround
Audio: English / Dolby Digital Audio / 2.0 / 48 kHz / 192 kbps / DN -4dB / Dolby Surround
Subtitle: English / 0,161 kbps

DVDInfo

Title: 3_PA_BD-DVD9
Size: 5.83 Gb ( 6 109 012,00 KBytes ) - DVD-9
Enabled regions: 1, 2, 3, 4, 5, 6, 7, 8
VTS_01 :
Play Length: 01:23:38
Video: NTSC 16:9 (720x480) VBR, Auto Letterboxed
Audio:
Russian (Dolby AC3, 2 ch)
Russian (Dolby AC3, 1 ch)
Russian (Dolby AC3, 2 ch)
Russian (Dolby AC3, 2 ch)
Russian (Dolby AC3, 1 ch)
Russian (Dolby AC3, 2 ch)
Russian (Dolby AC3, 2 ch)
English (Dolby AC3, 1 ch)
Subtitles:
English

Скриншоты программ и настроек

Точка перехода

Скрипт

LoadPlugin("D:\Program Files\FFMpegSource2\ffms2.dll")
FFVideoSource("D:\Pilice Academy\PA 3.mkv")
LoadPlugin("D:\Program Files\AutoYUY2\AutoYUY2.dll")
AutoYUY2()
LoadPlugin("D:\Program Files\ColorMatrix\ColorMatrix.dll")
ColorMatrix(mode="Rec.709->Rec.601", inputFR=false, clamp=0)
Lanczos4Resize(720, 480)
AssumeFPS ("ntsc_film")

Скриншоты меню

Скриншоты


-
Полицейская Академия - Антология
Полицейская академия
Полицейская академия 2: Их первое задание
Полицейская академия 3: Переподготовка
Полицейская академия 4: Граждане в дозоре
Полицейская академия 5: Место назначения – Майами Бич
[Profile]  [PM] 
Display posts:    
Reply to topic

Current time is: 14-Apr 01:42

All times are UTC + 2



You cannot post new topics in this forum
You cannot reply to topics in this forum
You cannot edit your posts in this forum
You cannot delete your posts in this forum
You cannot vote in polls in this forum
You cannot attach files in this forum
You cannot download files in this forum