Город грехов 2: Женщина, ради которой стоит убивать / Sin City: A Dame to Kill For (Фрэнк Миллер, Роберт Родригес / Frank Miller, Robert Rodriguez) [2014, США, Россия, триллер, криминал, DVD9] R5 Dub

Reply to topic
 
Author
Message

Faust ®

Gender: Unknown

Longevity: 9 years 6 months

Posts: 14955

Reputation: 0 [+] [-]

Faust · Post 08-Oct-2014 00:20

[Quote] 

-Город грехов 2: Женщина, ради которой стоит убивать / Sin City: A Dame to Kill For-«There is no justice without sin» -Страна: США, Россия
Студия: Aldamisa Entertainment, Demarest Films, Miramax Films, Solipsist Film, Troublemaker Studios
Жанр: триллер, криминал
Год выпуска: 2014
Мировая премьера: 19 августа 2014
Российская премьера: 21 августа 2014, «A Company», «Двадцатый Век Фокс СНГ» 3D
Дата выхода DVD: 30 сентября 2014, «CD Land», «Lizard Cinema Trade»
Дата выхода Blu-Ray: 30 сентября 2014, «CD Land», «Lizard Cinema Trade»
Продолжительность: 01:38:26
Перевод: Профессиональный (дублированный) [Лицензия]
Cубтитры: нет
Оригинальная аудиодорожка: нет-Режиссер: Фрэнк Миллер, Роберт Родригес / Frank Miller, Robert Rodriguez-В ролях: Микки Рурк, Джессика Альба, Джош Бролин, Джозеф Гордон-Левитт, Розарио Доусон, Брюс Уиллис, Ева Грин, Пауэрс Бут, Деннис Хейсбёрт, Рэй Лиотта-Описание: В темных переулках Города Грехов Дуайт планирует жестоко отомстить женщине по имени Ава Лорд, которая его предала, в то время как Нэнси пытается смириться со смертью детектива Хартигана.-Бонусы: нет- -Релиз группы: -Качество: DVD9 R5
Формат: DVD-Video
Видео кодек: MPEG2
Аудио кодек: AC3 + DTS
Видео: PAL 16:9 (720x576(0.620)) MPEG Video, 25,000 кадр/сек, 6428 Кбит/сек
Аудио #1: Russian (Dolby AC3, 6 ch) 448 Кбит/сек, 48,0 КГц
Аудио #2: Russian (DTS, 5 ch) 768 Кбит/сек, 48,0 КГц--

DVDInfo

Title: Gorod.grehov.2.2014.DVD9
Size: 5.48 Gb ( 5 742 740,00 KBytes ) - DVD-9
Enabled regions: 1, 2, 3, 4, 5, 6, 7, 8
VTS_01 :
Play Length: 00:00:25+{00:00:25}+{00:00:25}
Video: PAL 4:3 (720x576) VBR
Audio:
Russian (Dolby AC3, 6 ch)
English (Dolby AC3, 6 ch)
English (Dolby AC3, 6 ch)
VTS_02 :
Play Length: 01:38:26
Video: PAL 16:9 (720x576) VBR, Auto Pan&Scan, Auto Letterboxed
Audio:
Russian, AC3, 3/2 (L,C,R,SL,SR)+LFE ch, 448 kbps, Delay 0 mSec
Russian, DTS, 3/2 (L,C,R,SL,SR), 768 kbps, Delay 0 mSec
* Menus Information *
VIDEO_TS Menu
Video:
PAL 16:9 (720x576) VBR
Auto Pan&Scan, Auto Letterboxed
English Language Unit :
Title Menu
VTS_01 Menu
Video:
PAL 16:9 (720x576) VBR
Auto Letterboxed
Audio:
Not specified (Dolby AC3, 2 ch)
English Language Unit :
Root Menu
Chapter (PTT) Menu
VTS_02 Menu
Video:
PAL 4:3 (720x576) VBR
English Language Unit :
Root Menu
Audio Menu
Chapter (PTT) Menu

MediaInfo

Общее
Полное имя : F:\Новинки 2014\Gorod.grehov.2.2014.DVD9\VIDEO_TS\VTS_02_1.VOB
Формат : MPEG-PS
Размер файла : 1024 Мбайт
Продолжительность : 18 м.
Режим общего битрейта : Переменный
Общий поток : 7786 Кбит/сек
Видео
Идентификатор : 224 (0xE0)
Формат : MPEG Video
Версия формата : Version 2
Профиль формата : Main@Main
Параметр BVOP формата : Да
Параметр матрицы формата : Выборочная
Параметр GOP формата : Variable
Продолжительность : 18 м.
Вид битрейта : Переменный
Битрейт : 6428 Кбит/сек
Максимальный битрейт : 8000 Кбит/сек
Ширина : 720 пикселей
Высота : 576 пикселей
Соотношение сторон : 16:9
Частота кадров : 25,000 кадров/сек
Стандарт вещания : PAL
Цветовое пространство : YUV
Субдискретизация насыщенности : 4:2:0
Битовая глубина : 8 бит
Тип развёртки : Прогрессивная
Метод сжатия : С потерями
Бит/(Пиксели*Кадры) : 0.620
Временной код первого кадра : 00:00:00:00
Оригинал временного кода : Group of pictures header
Размер потока : 845 Мбайт (83%)
Аудио #1
Идентификатор : 189 (0xBD)-128 (0x80)
Формат : AC-3
Формат/Информация : Audio Coding 3
Расширение режима : CM (complete main)
Параметр Endianness формата : Big
Режим смешивания : DVD-Video
Продолжительность : 18 м.
Вид битрейта : Постоянный
Битрейт : 448 Кбит/сек
Каналы : 6 каналов
Расположение каналов : Front: L C R, Side: L R, LFE
Частота : 48,0 КГц
Битовая глубина : 16 бит
Метод сжатия : С потерями
Размер потока : 58,9 Мбайт (6%)
Аудио #2
Идентификатор : 189 (0xBD)-137 (0x89)
Формат : DTS
Формат/Информация : Digital Theater Systems
Режим : 16
Параметр Endianness формата : Big
Режим смешивания : DVD-Video
Продолжительность : 18 м.
Вид битрейта : Постоянный
Битрейт : 755 Кбит/сек
Каналы : 6 каналов
Расположение каналов : Front: L C R, Side: L R, LFE
Частота : 48,0 КГц
Битовая глубина : 24 бит
Метод сжатия : С потерями
Размер потока : 99,2 Мбайт (10%)

Скриншоты меню

Скриншоты фильма


-
-Раздача от группы:
[Profile]  [PM] 
Display posts:    
Reply to topic

Current time is: 14-Apr 01:41

All times are UTC + 2



You cannot post new topics in this forum
You cannot reply to topics in this forum
You cannot edit your posts in this forum
You cannot delete your posts in this forum
You cannot vote in polls in this forum
You cannot attach files in this forum
You cannot download files in this forum