Когда сгустится тьма / När mörkret faller / When Darkness Falls (Андерс Нилссон / Anders Nilsson) [2006, Швеция, Германия, Драма, DVD9 (custom)] VO + Original (Sv) + Sub (Rus, Sv, Nor, De, Fin, Eng)

Reply to topic
 
Author
Message

Faust ®

Gender: Unknown

Longevity: 9 years 6 months

Posts: 14969

Reputation: 0 [+] [-]

Faust · Post 12-Oct-2014 00:20

[Quote] 

Когда сгустится тьма / När mörkret faller / When Darkness Falls- Страна: Швеция, Германия
Студия: Film i Väst, Multimedia Film- und Fernsehproduktions GmbH, Sonet Film AB
Жанр: Драма
Год выпуска: 2006
Продолжительность: 02:08:58-Перевод: Одноголосый закадровый [lord666]
Cубтитры: русские [creo140], шведские, норвежские, датские, финские, английские
Оригинальная аудиодорожка: шведский-Режиссер: Андерс Нилссон / Anders Nilsson-В ролях: Олдоз Джавиди, Бахар Парс, Мина Азарян, Сезар Чарачу, Тони Хаддад-Описание: Три новеллы, рассказывающие о жертвах преступлений, о которых обычно предпочитают молчать. Лейла — дочь иммигрантов из пригорода — пытается восстановить честь сестры, доведенной родственниками до самоубийства. Карина, ставшая жертвой домашнего насилия, пытается привлечь внимание общественности к распространенной проблеме. Арам, владелец магазина, стал жертвой рэкетиров. А когда отказался платить — его магазин разнесли вдребезги. Он оказывается единственным человеком, способным опознать нападавших. И он не станет молчать.-Доп. информация:
- русская звуковаяю дорожка идет первой по умолчанию;
- русские субтитры включаются с пульта плеера;
- за исходный DVD9 спасибо edus67
Бонусы: дополнительные материалы включают фильм о съемках, не вошедшие в фильм сцены, трейлер - все на шведском языке
Меню: есть, язык шведский / английский, анимированное, озвученное-Sample | IMDB | КиноПоиск-Тип релиза: DVD9 (Custom)
Контейнер: DVD-Video-Видео: PAL 16:9 (720x576) VBR Auto Letterboxed
Аудио 1: AC3, 2/0 ch, 192Kbps, Delay 0 mSec [Russian_VO]
Аудио 2: AC3, 3/2+LFE ch, 448Kbps, Delay 0 mSec [Original_Swedish]-Релиз группы: -

Используемое ПО

1. BeLight - mp3 - wav;
2. Minnetonka Audio Software - wav - ac3;

3. PgcDemux - разборка оригинального DVD;
4. MuxMan - сборка DVD;
5. DVDReMake Pro - финальный проект.

DVDInfo

Title:
Size: 7.75 Gb ( 8 130 882 KBytes ) - DVD-9
Enabled regions: 1, 2, 3, 4, 5, 6, 7, 8
VTS_01 :
Play Length: 02:08:58
Video: PAL 16:9 (720x576) VBR, Auto Letterboxed
Audio:
Russian (Dolby AC3, 2 ch)
Svenska (Dolby AC3, 6 ch)
Subtitles:
Russian
Svenska
Norsk
Dansk
Suomi
English
VTS_02 :
Play Length: 00:23:19+00:51:46+00:02:34+00:00:43+00:00:32+00:01:38+00:01:29+00:01:06+00:01:20+00:12:29+00:02:03+00:01:18+00:00:42+00:01:13
Video: PAL 16:9 (720x576) VBR, Auto Letterboxed
Audio:
Svenska (Dolby AC3, 2 ch)
Menu Video:
PAL 16:9 (720x576) VBR
Auto Letterboxed
Menu Audio:
Not specified (Dolby AC3, 6 ch)
Menu Subtitles:
Not specified
Menu Svenska Language Unit :
Root Menu
Subpicture Menu
Audio Menu
Chapter (PTT) Menu

MediaInfo

General
Complete name : D:\Мои релизы\When Darkness Falls [DVD9]\VIDEO_TS\VIDEO_TS.BUP
Format : DVD Video
Format profile : Menu
File size : 14.0 KiB
Video
ID : 224 (0xE0)
Format : MPEG Video
Format version : Version 2
Bit rate mode : Variable
Width : 720 pixels
Height : 576 pixels
Display aspect ratio : 16:9
Frame rate : 25.000 fps
Standard : PAL
Compression mode : Lossy
Audio
Format : AC-3
Format/Info : Audio Coding 3
Channel(s) : 6 channels
Sampling rate : 48.0 KHz
Compression mode : Lossy
Text
Format : RLE
Format/Info : Run-length encoding
Bit depth : 2 bits
General
Complete name : D:\Мои релизы\When Darkness Falls [DVD9]\VIDEO_TS\VIDEO_TS.IFO
Format : DVD Video
Format profile : Menu
File size : 14.0 KiB
Video
ID : 224 (0xE0)
Format : MPEG Video
Format version : Version 2
Bit rate mode : Variable
Width : 720 pixels
Height : 576 pixels
Display aspect ratio : 16:9
Frame rate : 25.000 fps
Standard : PAL
Compression mode : Lossy
Audio
Format : AC-3
Format/Info : Audio Coding 3
Channel(s) : 6 channels
Sampling rate : 48.0 KHz
Compression mode : Lossy
Text
Format : RLE
Format/Info : Run-length encoding
Bit depth : 2 bits
General
Complete name : D:\Мои релизы\When Darkness Falls [DVD9]\VIDEO_TS\VIDEO_TS.VOB
Format : MPEG-PS
File size : 32.2 MiB
Overall bit rate : 0
Writing library : Apple MPEG-2 Encoder v483-20050527 [6200000 301 R7700000 w3 e2s E2 s0x10002 V0x0]
Video
ID : 224 (0xE0)
Format : MPEG Video
Format version : Version 2
Format profile : Main@Main
Format settings, BVOP : Yes
Format settings, Matrix : Default
Format settings, GOP : M=3, N=12
Duration : 15s 0ms
Bit rate mode : Variable
Nominal bit rate : 7 700 Kbps
Width : 720 pixels
Height : 576 pixels
Display aspect ratio : 16:9
Frame rate : 25.000 fps
Standard : PAL
Color space : YUV
Chroma subsampling : 4:2:0
Bit depth : 8 bits
Scan type : Interlaced
Scan order : Top Field First
Compression mode : Lossy
Bits/(Pixel*Frame) : 0.743
Writing library : Apple MPEG-2 Encoder v483-20050527 [6200000 301 R7700000 w3 e2s E2 s0x10002 V0x0]
Audio
ID : 128 (0x80)
Format : AC-3
Format/Info : Audio Coding 3
Mode extension : CM (complete main)
Bit rate mode : Constant
Bit rate : 448 Kbps
Channel(s) : 6 channels
Channel positions : Front: L C R, Side: L R, LFE
Sampling rate : 48.0 KHz
Bit depth : 16 bits
Compression mode : Lossy
Stream size : 940 ?iB
Menu
General
Complete name : D:\Мои релизы\When Darkness Falls [DVD9]\VIDEO_TS\VTS_01_0.BUP
Format : DVD Video
Format profile : Program
File size : 94.0 KiB
Duration : 2h 8mn
Overall bit rate : 99 bps
Video
ID : 224 (0xE0)
Format : MPEG Video
Format version : Version 2
Duration : 2h 8mn
Bit rate mode : Variable
Width : 720 pixels
Height : 576 pixels
Display aspect ratio : 16:9
Frame rate : 25.000 fps
Standard : PAL
Compression mode : Lossy
Audio #1
ID : 128 (0x80)
Format : AC-3
Format/Info : Audio Coding 3
Duration : 2h 8mn
Channel(s) : 2 channels
Sampling rate : 48.0 KHz
Compression mode : Lossy
Language : Russian
Audio #2
ID : 129 (0x81)
Format : AC-3
Format/Info : Audio Coding 3
Duration : 2h 8mn
Channel(s) : 6 channels
Sampling rate : 48.0 KHz
Compression mode : Lossy
Language : Swedish
Text #1
ID : 32 (0x20)
Format : RLE
Format/Info : Run-length encoding
Bit depth : 2 bits
Language : Russian
Text #2
ID : 33 (0x21)
Format : RLE
Format/Info : Run-length encoding
Bit depth : 2 bits
Language : Swedish
Text #3
ID : 34 (0x22)
Format : RLE
Format/Info : Run-length encoding
Bit depth : 2 bits
Language : Norwegian
Text #4
ID : 35 (0x23)
Format : RLE
Format/Info : Run-length encoding
Bit depth : 2 bits
Language : Danish
Text #5
ID : 36 (0x24)
Format : RLE
Format/Info : Run-length encoding
Bit depth : 2 bits
Language : Finnish
Text #6
ID : 37 (0x25)
Format : RLE
Format/Info : Run-length encoding
Bit depth : 2 bits
Language : English
Menu
Duration : 2h 8mn
00:00:00.000 : Chapter 1
00:07:33.240 : Chapter 2
00:16:03.600 : Chapter 3
00:28:35.720 : Chapter 4
00:33:38.240 : Chapter 5
00:42:24.920 : Chapter 6
00:48:39.440 : Chapter 7
00:58:16.920 : Chapter 8
01:08:24.280 : Chapter 9
01:15:24.480 : Chapter 10
01:21:52.400 : Chapter 11
01:26:18.480 : Chapter 12
01:32:08.240 : Chapter 13
01:44:06.400 : Chapter 14
01:49:58.520 : Chapter 15
01:56:00.560 : Chapter 16
01:59:38.400 : Chapter 17
02:06:43.120 : Chapter 18
List (Audio) : 0 / 1
List (Subtitles 4/3) : 0 / 0 / 0 / 0 / 0 / 0
List (Subtitles Wide) : 0 / 1 / 2 / 3 / 4 / 5
List (Subtitles Letterbox) : 0 / 1 / 2 / 3 / 4 / 5
List (Subtitles Pan&Scan) : 0 / 0 / 0 / 0 / 0 / 0
General
Complete name : D:\Мои релизы\When Darkness Falls [DVD9]\VIDEO_TS\VTS_01_0.IFO
Format : DVD Video
Format profile : Program
File size : 94.0 KiB
Duration : 2h 8mn
Overall bit rate : 99 bps
Video
ID : 224 (0xE0)
Format : MPEG Video
Format version : Version 2
Duration : 2h 8mn
Bit rate mode : Variable
Width : 720 pixels
Height : 576 pixels
Display aspect ratio : 16:9
Frame rate : 25.000 fps
Standard : PAL
Compression mode : Lossy
Audio #1
ID : 128 (0x80)
Format : AC-3
Format/Info : Audio Coding 3
Duration : 2h 8mn
Channel(s) : 2 channels
Sampling rate : 48.0 KHz
Compression mode : Lossy
Language : Russian
Audio #2
ID : 129 (0x81)
Format : AC-3
Format/Info : Audio Coding 3
Duration : 2h 8mn
Channel(s) : 6 channels
Sampling rate : 48.0 KHz
Compression mode : Lossy
Language : Swedish
Text #1
ID : 32 (0x20)
Format : RLE
Format/Info : Run-length encoding
Bit depth : 2 bits
Language : Russian
Text #2
ID : 33 (0x21)
Format : RLE
Format/Info : Run-length encoding
Bit depth : 2 bits
Language : Swedish
Text #3
ID : 34 (0x22)
Format : RLE
Format/Info : Run-length encoding
Bit depth : 2 bits
Language : Norwegian
Text #4
ID : 35 (0x23)
Format : RLE
Format/Info : Run-length encoding
Bit depth : 2 bits
Language : Danish
Text #5
ID : 36 (0x24)
Format : RLE
Format/Info : Run-length encoding
Bit depth : 2 bits
Language : Finnish
Text #6
ID : 37 (0x25)
Format : RLE
Format/Info : Run-length encoding
Bit depth : 2 bits
Language : English
Menu
Duration : 2h 8mn
00:00:00.000 : Chapter 1
00:07:33.240 : Chapter 2
00:16:03.600 : Chapter 3
00:28:35.720 : Chapter 4
00:33:38.240 : Chapter 5
00:42:24.920 : Chapter 6
00:48:39.440 : Chapter 7
00:58:16.920 : Chapter 8
01:08:24.280 : Chapter 9
01:15:24.480 : Chapter 10
01:21:52.400 : Chapter 11
01:26:18.480 : Chapter 12
01:32:08.240 : Chapter 13
01:44:06.400 : Chapter 14
01:49:58.520 : Chapter 15
01:56:00.560 : Chapter 16
01:59:38.400 : Chapter 17
02:06:43.120 : Chapter 18
List (Audio) : 0 / 1
List (Subtitles 4/3) : 0 / 0 / 0 / 0 / 0 / 0
List (Subtitles Wide) : 0 / 1 / 2 / 3 / 4 / 5
List (Subtitles Letterbox) : 0 / 1 / 2 / 3 / 4 / 5
List (Subtitles Pan&Scan) : 0 / 0 / 0 / 0 / 0 / 0
General
Complete name : D:\Мои релизы\When Darkness Falls [DVD9]\VIDEO_TS\VTS_01_0.VOB
Format : MPEG-PS
File size : 153 MiB
Duration : 30s 47ms
Overall bit rate : 42.8 Mbps
Video
ID : 224 (0xE0)
Format : MPEG Video
Format version : Version 2
Format profile : Main@Main
Format settings, BVOP : Yes
Format settings, Matrix : Default
Duration : 30s 39ms
Bit rate mode : Variable
Bit rate : 41.8 Mbps
Width : 720 pixels
Height : 576 pixels
Display aspect ratio : 16:9
Frame rate : 25.000 fps
Standard : PAL
Color space : YUV
Chroma subsampling : 4:2:0
Bit depth : 8 bits
Scan type : Progressive
Compression mode : Lossy
Bits/(Pixel*Frame) : 4.028
Stream size : 150 MiB (98%)
Audio
ID : 128 (0x80)
Format : AC-3
Format/Info : Audio Coding 3
Mode extension : CM (complete main)
Duration : 30s 47ms
Bit rate mode : Constant
Bit rate : 192 Kbps
Channel(s) : 2 channels
Channel positions : Front: L R
Sampling rate : 48.0 KHz
Bit depth : 16 bits
Compression mode : Lossy
Stream size : 704 KiB (0%)
Text #1
ID : 32 (0x20)
Format : RLE
Format/Info : Run-length encoding
Text #2
ID : 33 (0x21)
Format : RLE
Format/Info : Run-length encoding
Menu
General
Complete name : D:\Мои релизы\When Darkness Falls [DVD9]\VIDEO_TS\VTS_01_1.VOB
Format : MPEG-PS
File size : 1 024 MiB
Duration : 22mn 44s
Overall bit rate : 6 297 Kbps
Video
ID : 224 (0xE0)
Format : MPEG Video
Format version : Version 2
Format profile : Main@Main
Format settings, BVOP : Yes
Format settings, Matrix : Default
Format settings, GOP : M=3, N=12
Duration : 22mn 44s
Bit rate mode : Variable
Bit rate : 5 532 Kbps
Nominal bit rate : 8 000 Kbps
Width : 720 pixels
Height : 576 pixels
Display aspect ratio : 16:9
Frame rate : 25.000 fps
Standard : PAL
Color space : YUV
Chroma subsampling : 4:2:0
Bit depth : 8 bits
Scan type : Interlaced
Scan order : Top Field First
Compression mode : Lossy
Bits/(Pixel*Frame) : 0.534
Stream size : 900 MiB (88%)
Audio #1
ID : 128 (0x80)
Format : AC-3
Format/Info : Audio Coding 3
Mode extension : CM (complete main)
Duration : 22mn 43s
Bit rate mode : Constant
Bit rate : 192 Kbps
Channel(s) : 2 channels
Channel positions : Front: L R
Sampling rate : 48.0 KHz
Bit depth : 16 bits
Compression mode : Lossy
Stream size : 31.2 MiB (3%)
Audio #2
ID : 129 (0x81)
Format : AC-3
Format/Info : Audio Coding 3
Mode extension : CM (complete main)
Duration : 22mn 43s
Bit rate mode : Constant
Bit rate : 448 Kbps
Channel(s) : 6 channels
Channel positions : Front: L C R, Side: L R, LFE
Sampling rate : 48.0 KHz
Bit depth : 16 bits
Compression mode : Lossy
Stream size : 72.8 MiB (7%)
Text #1
ID : 32 (0x20)
Format : RLE
Format/Info : Run-length encoding
Text #2
ID : 33 (0x21)
Format : RLE
Format/Info : Run-length encoding
Text #3
ID : 34 (0x22)
Format : RLE
Format/Info : Run-length encoding
Text #4
ID : 36 (0x24)
Format : RLE
Format/Info : Run-length encoding
Text #5
ID : 37 (0x25)
Format : RLE
Format/Info : Run-length encoding
Menu
General
Complete name : D:\Мои релизы\When Darkness Falls [DVD9]\VIDEO_TS\VTS_01_2.VOB
Format : MPEG-PS
File size : 1 024 MiB
Duration : 22mn 44s
Overall bit rate : 6 293 Kbps
Video
ID : 224 (0xE0)
Format : MPEG Video
Format version : Version 2
Format profile : Main@Main
Format settings, BVOP : Yes
Format settings, Matrix : Default
Format settings, GOP : M=3, N=12
Duration : 22mn 44s
Bit rate mode : Variable
Bit rate : 5 528 Kbps
Nominal bit rate : 8 000 Kbps
Width : 720 pixels
Height : 576 pixels
Display aspect ratio : 16:9
Frame rate : 25.000 fps
Standard : PAL
Color space : YUV
Chroma subsampling : 4:2:0
Bit depth : 8 bits
Scan type : Interlaced
Scan order : Top Field First
Compression mode : Lossy
Bits/(Pixel*Frame) : 0.533
Stream size : 899 MiB (88%)
Audio #1
ID : 128 (0x80)
Format : AC-3
Format/Info : Audio Coding 3
Mode extension : CM (complete main)
Duration : 22mn 44s
Bit rate mode : Constant
Bit rate : 192 Kbps
Channel(s) : 2 channels
Channel positions : Front: L R
Sampling rate : 48.0 KHz
Bit depth : 16 bits
Compression mode : Lossy
Video delay : -640ms
Stream size : 31.2 MiB (3%)
Audio #2
ID : 129 (0x81)
Format : AC-3
Format/Info : Audio Coding 3
Mode extension : CM (complete main)
Duration : 22mn 44s
Bit rate mode : Constant
Bit rate : 448 Kbps
Channel(s) : 6 channels
Channel positions : Front: L C R, Side: L R, LFE
Sampling rate : 48.0 KHz
Bit depth : 16 bits
Compression mode : Lossy
Video delay : -704ms
Stream size : 72.9 MiB (7%)
Text
ID : 35 (0x23)
Format : RLE
Format/Info : Run-length encoding
Video delay : 2s 280ms
Menu
General
Complete name : D:\Мои релизы\When Darkness Falls [DVD9]\VIDEO_TS\VTS_01_3.VOB
Format : MPEG-PS
File size : 1 024 MiB
Duration : 22mn 44s
Overall bit rate : 6 293 Kbps
Video
ID : 224 (0xE0)
Format : MPEG Video
Format version : Version 2
Format profile : Main@Main
Format settings, BVOP : Yes
Format settings, Matrix : Default
Format settings, GOP : M=3, N=12
Duration : 22mn 44s
Bit rate mode : Variable
Bit rate : 5 528 Kbps
Nominal bit rate : 8 000 Kbps
Width : 720 pixels
Height : 576 pixels
Display aspect ratio : 16:9
Frame rate : 25.000 fps
Standard : PAL
Color space : YUV
Chroma subsampling : 4:2:0
Bit depth : 8 bits
Scan type : Interlaced
Scan order : Top Field First
Compression mode : Lossy
Bits/(Pixel*Frame) : 0.533
Stream size : 899 MiB (88%)
Audio #1
ID : 128 (0x80)
Format : AC-3
Format/Info : Audio Coding 3
Mode extension : CM (complete main)
Duration : 22mn 44s
Bit rate mode : Constant
Bit rate : 192 Kbps
Channel(s) : 2 channels
Channel positions : Front: L R
Sampling rate : 48.0 KHz
Bit depth : 16 bits
Compression mode : Lossy
Video delay : -472ms
Stream size : 31.2 MiB (3%)
Audio #2
ID : 129 (0x81)
Format : AC-3
Format/Info : Audio Coding 3
Mode extension : CM (complete main)
Duration : 22mn 44s
Bit rate mode : Constant
Bit rate : 448 Kbps
Channel(s) : 6 channels
Channel positions : Front: L C R, Side: L R, LFE
Sampling rate : 48.0 KHz
Bit depth : 16 bits
Compression mode : Lossy
Video delay : -536ms
Stream size : 72.9 MiB (7%)
Text #1
ID : 32 (0x20)
Format : RLE
Format/Info : Run-length encoding
Video delay : 1s 560ms
Text #2
ID : 33 (0x21)
Format : RLE
Format/Info : Run-length encoding
Video delay : 1s 560ms
Text #3
ID : 34 (0x22)
Format : RLE
Format/Info : Run-length encoding
Video delay : 1s 560ms
Text #4
ID : 35 (0x23)
Format : RLE
Format/Info : Run-length encoding
Video delay : 1s 680ms
Text #5
ID : 36 (0x24)
Format : RLE
Format/Info : Run-length encoding
Video delay : 1s 560ms
Text #6
ID : 37 (0x25)
Format : RLE
Format/Info : Run-length encoding
Video delay : 1s 560ms
Menu
General
Complete name : D:\Мои релизы\When Darkness Falls [DVD9]\VIDEO_TS\VTS_01_4.VOB
Format : MPEG-PS
File size : 1 024 MiB
Duration : 22mn 46s
Overall bit rate : 6 287 Kbps
Video
ID : 224 (0xE0)
Format : MPEG Video
Format version : Version 2
Format profile : Main@Main
Format settings, BVOP : Yes
Format settings, Matrix : Default
Format settings, GOP : M=3, N=12
Duration : 22mn 46s
Bit rate mode : Variable
Bit rate : 5 522 Kbps
Nominal bit rate : 8 000 Kbps
Width : 720 pixels
Height : 576 pixels
Display aspect ratio : 16:9
Frame rate : 25.000 fps
Standard : PAL
Color space : YUV
Chroma subsampling : 4:2:0
Bit depth : 8 bits
Scan type : Interlaced
Scan order : Top Field First
Compression mode : Lossy
Bits/(Pixel*Frame) : 0.533
Stream size : 899 MiB (88%)
Audio #1
ID : 128 (0x80)
Format : AC-3
Format/Info : Audio Coding 3
Mode extension : CM (complete main)
Duration : 22mn 46s
Bit rate mode : Constant
Bit rate : 192 Kbps
Channel(s) : 2 channels
Channel positions : Front: L R
Sampling rate : 48.0 KHz
Bit depth : 16 bits
Compression mode : Lossy
Video delay : -456ms
Stream size : 31.3 MiB (3%)
Audio #2
ID : 129 (0x81)
Format : AC-3
Format/Info : Audio Coding 3
Mode extension : CM (complete main)
Duration : 22mn 46s
Bit rate mode : Constant
Bit rate : 448 Kbps
Channel(s) : 6 channels
Channel positions : Front: L C R, Side: L R, LFE
Sampling rate : 48.0 KHz
Bit depth : 16 bits
Compression mode : Lossy
Video delay : -488ms
Stream size : 73.0 MiB (7%)
Text #1
ID : 32 (0x20)
Format : RLE
Format/Info : Run-length encoding
Duration : 22mn 45s
Video delay : 440ms
Text #2
ID : 33 (0x21)
Format : RLE
Format/Info : Run-length encoding
Duration : 22mn 45s
Video delay : 120ms
Text #3
ID : 34 (0x22)
Format : RLE
Format/Info : Run-length encoding
Duration : 22mn 45s
Video delay : 120ms
Text #4
ID : 35 (0x23)
Format : RLE
Format/Info : Run-length encoding
Duration : 22mn 45s
Video delay : 400ms
Text #5
ID : 36 (0x24)
Format : RLE
Format/Info : Run-length encoding
Duration : 22mn 45s
Video delay : 120ms
Text #6
ID : 37 (0x25)
Format : RLE
Format/Info : Run-length encoding
Duration : 22mn 45s
Video delay : 120ms
Menu
General
Complete name : D:\Мои релизы\When Darkness Falls [DVD9]\VIDEO_TS\VTS_01_5.VOB
Format : MPEG-PS
File size : 1 024 MiB
Duration : 22mn 43s
Overall bit rate : 6 300 Kbps
Video
ID : 224 (0xE0)
Format : MPEG Video
Format version : Version 2
Format profile : Main@Main
Format settings, BVOP : Yes
Format settings, Matrix : Default
Format settings, GOP : M=3, N=12
Duration : 22mn 43s
Bit rate mode : Variable
Bit rate : 5 534 Kbps
Nominal bit rate : 8 000 Kbps
Width : 720 pixels
Height : 576 pixels
Display aspect ratio : 16:9
Frame rate : 25.000 fps
Standard : PAL
Color space : YUV
Chroma subsampling : 4:2:0
Bit depth : 8 bits
Scan type : Interlaced
Scan order : Top Field First
Compression mode : Lossy
Bits/(Pixel*Frame) : 0.534
Stream size : 899 MiB (88%)
Audio #1
ID : 128 (0x80)
Format : AC-3
Format/Info : Audio Coding 3
Mode extension : CM (complete main)
Duration : 22mn 43s
Bit rate mode : Constant
Bit rate : 192 Kbps
Channel(s) : 2 channels
Channel positions : Front: L R
Sampling rate : 48.0 KHz
Bit depth : 16 bits
Compression mode : Lossy
Video delay : -624ms
Stream size : 31.2 MiB (3%)
Audio #2
ID : 129 (0x81)
Format : AC-3
Format/Info : Audio Coding 3
Mode extension : CM (complete main)
Duration : 22mn 43s
Bit rate mode : Constant
Bit rate : 448 Kbps
Channel(s) : 6 channels
Channel positions : Front: L C R, Side: L R, LFE
Sampling rate : 48.0 KHz
Bit depth : 16 bits
Compression mode : Lossy
Video delay : -688ms
Stream size : 72.8 MiB (7%)
Menu
General
Complete name : D:\Мои релизы\When Darkness Falls [DVD9]\VIDEO_TS\VTS_01_6.VOB
Format : MPEG-PS
File size : 656 MiB
Duration : 15mn 14s
Overall bit rate : 6 014 Kbps
Video
ID : 224 (0xE0)
Format : MPEG Video
Format version : Version 2
Format profile : Main@Main
Format settings, BVOP : Yes
Format settings, Matrix : Default
Format settings, GOP : M=3, N=12
Duration : 15mn 13s
Bit rate mode : Variable
Bit rate : 5 254 Kbps
Nominal bit rate : 8 000 Kbps
Width : 720 pixels
Height : 576 pixels
Display aspect ratio : 16:9
Frame rate : 25.000 fps
Standard : PAL
Color space : YUV
Chroma subsampling : 4:2:0
Bit depth : 8 bits
Scan type : Interlaced
Scan order : Top Field First
Compression mode : Lossy
Bits/(Pixel*Frame) : 0.507
Stream size : 572 MiB (87%)
Audio #1
ID : 128 (0x80)
Format : AC-3
Format/Info : Audio Coding 3
Mode extension : CM (complete main)
Duration : 15mn 14s
Bit rate mode : Constant
Bit rate : 192 Kbps
Channel(s) : 2 channels
Channel positions : Front: L R
Sampling rate : 48.0 KHz
Bit depth : 16 bits
Compression mode : Lossy
Video delay : -632ms
Stream size : 20.9 MiB (3%)
Audio #2
ID : 129 (0x81)
Format : AC-3
Format/Info : Audio Coding 3
Mode extension : CM (complete main)
Duration : 15mn 14s
Bit rate mode : Constant
Bit rate : 448 Kbps
Channel(s) : 6 channels
Channel positions : Front: L C R, Side: L R, LFE
Sampling rate : 48.0 KHz
Bit depth : 16 bits
Compression mode : Lossy
Video delay : -728ms
Stream size : 48.8 MiB (7%)
Text #1
ID : 32 (0x20)
Format : RLE
Format/Info : Run-length encoding
Video delay : 2s 320ms
Text #2
ID : 33 (0x21)
Format : RLE
Format/Info : Run-length encoding
Video delay : 2s 160ms
Text #3
ID : 34 (0x22)
Format : RLE
Format/Info : Run-length encoding
Video delay : 2s 160ms
Text #4
ID : 35 (0x23)
Format : RLE
Format/Info : Run-length encoding
Video delay : 2s 320ms
Text #5
ID : 36 (0x24)
Format : RLE
Format/Info : Run-length encoding
Video delay : 2s 160ms
Text #6
ID : 37 (0x25)
Format : RLE
Format/Info : Run-length encoding
Video delay : 2s 0ms
Menu
General
Complete name : D:\Мои релизы\When Darkness Falls [DVD9]\VIDEO_TS\VTS_02_0.BUP
Format : DVD Video
Format profile : Program
File size : 60.0 KiB
Duration : 23mn 19s
Overall bit rate : 351 bps
Video
ID : 224 (0xE0)
Format : MPEG Video
Format version : Version 2
Duration : 23mn 19s
Bit rate mode : Variable
Width : 720 pixels
Height : 576 pixels
Display aspect ratio : 16:9
Frame rate : 25.000 fps
Standard : PAL
Compression mode : Lossy
Audio
ID : 128 (0x80)
Format : AC-3
Format/Info : Audio Coding 3
Duration : 23mn 19s
Channel(s) : 2 channels
Sampling rate : 48.0 KHz
Compression mode : Lossy
Language : Swedish
Menu #1
Duration : 23mn 19s
00:00:00.000 : Chapter 1
00:01:38.000 : Chapter 2
00:03:07.000 : Chapter 3
00:04:13.000 : Chapter 4
00:05:33.000 : Chapter 5
00:18:02.000 : Chapter 6
00:20:05.400 : Chapter 7
00:21:24.000 : Chapter 8
00:22:06.000 : Chapter 9
List (Audio) : 0
Menu #2
Duration : 480ms
00:00:00.000 : Chapter 1
List (Audio) : 0
General
Complete name : D:\Мои релизы\When Darkness Falls [DVD9]\VIDEO_TS\VTS_02_0.IFO
Format : DVD Video
Format profile : Program
File size : 60.0 KiB
Duration : 23mn 19s
Overall bit rate : 351 bps
Video
ID : 224 (0xE0)
Format : MPEG Video
Format version : Version 2
Duration : 23mn 19s
Bit rate mode : Variable
Width : 720 pixels
Height : 576 pixels
Display aspect ratio : 16:9
Frame rate : 25.000 fps
Standard : PAL
Compression mode : Lossy
Audio
ID : 128 (0x80)
Format : AC-3
Format/Info : Audio Coding 3
Duration : 23mn 19s
Channel(s) : 2 channels
Sampling rate : 48.0 KHz
Compression mode : Lossy
Language : Swedish
Menu #1
Duration : 23mn 19s
00:00:00.000 : Chapter 1
00:01:38.000 : Chapter 2
00:03:07.000 : Chapter 3
00:04:13.000 : Chapter 4
00:05:33.000 : Chapter 5
00:18:02.000 : Chapter 6
00:20:05.400 : Chapter 7
00:21:24.000 : Chapter 8
00:22:06.000 : Chapter 9
List (Audio) : 0
Menu #2
Duration : 480ms
00:00:00.000 : Chapter 1
List (Audio) : 0
General
Complete name : D:\Мои релизы\When Darkness Falls [DVD9]\VIDEO_TS\VTS_02_0.VOB
Format : MPEG-PS
File size : 10.0 KiB
Duration : 40ms
Overall bit rate : 2 048 Kbps
Video
ID : 224 (0xE0)
Format : MPEG Video
Format version : Version 2
Format profile : Main@Main
Format settings, BVOP : No
Format settings, Matrix : Default
Duration : 40ms
Bit rate mode : Constant
Bit rate : 8 000 Kbps
Width : 720 pixels
Height : 576 pixels
Display aspect ratio : 16:9
Frame rate : 25.000 fps
Standard : PAL
Color space : YUV
Chroma subsampling : 4:2:0
Bit depth : 8 bits
Scan type : Progressive
Scan order : Top Field First
Compression mode : Lossy
Bits/(Pixel*Frame) : 0.772
Stream size : 39.1 KiB
Menu
General
Complete name : D:\Мои релизы\When Darkness Falls [DVD9]\VIDEO_TS\VTS_02_1.VOB
Format : MPEG-PS
File size : 1 024 MiB
Duration : 12mn 57s
Overall bit rate : 11.0 Mbps
Video
ID : 224 (0xE0)
Format : MPEG Video
Format version : Version 2
Format profile : Main@Main
Format settings, BVOP : Yes
Format settings, Matrix : Default
Format settings, GOP : M=3, N=12
Duration : 12mn 57s
Bit rate mode : Variable
Bit rate : 10.6 Mbps
Nominal bit rate : 7 000 Kbps
Width : 720 pixels
Height : 576 pixels
Display aspect ratio : 16:9
Frame rate : 25.000 fps
Standard : PAL
Color space : YUV
Chroma subsampling : 4:2:0
Bit depth : 8 bits
Scan type : Interlaced
Scan order : Top Field First
Compression mode : Lossy
Bits/(Pixel*Frame) : 1.026
Stream size : 986 MiB (96%)
Audio
ID : 128 (0x80)
Format : AC-3
Format/Info : Audio Coding 3
Mode extension : CM (complete main)
Duration : 12mn 57s
Bit rate mode : Constant
Bit rate : 192 Kbps
Channel(s) : 2 channels
Channel positions : Front: L R
Sampling rate : 48.0 KHz
Bit depth : 16 bits
Compression mode : Lossy
Stream size : 17.8 MiB (2%)
Menu
General
Complete name : D:\Мои релизы\When Darkness Falls [DVD9]\VIDEO_TS\VTS_02_2.VOB
Format : MPEG-PS
File size : 955 MiB
Duration : 38mn 48s
Overall bit rate : 3 439 Kbps
Video
ID : 224 (0xE0)
Format : MPEG Video
Format version : Version 2
Format profile : Main@Main
Format settings, BVOP : Yes
Format settings, Matrix : Default
Duration : 38mn 48s
Bit rate mode : Variable
Bit rate : 3 179 Kbps
Nominal bit rate : 7 000 Kbps
Width : 720 pixels
Height : 576 pixels
Display aspect ratio : 4:3
Frame rate : 25.000 fps
Standard : PAL
Color space : YUV
Chroma subsampling : 4:2:0
Bit depth : 8 bits
Scan type : Interlaced
Scan order : Top Field First
Compression mode : Lossy
Bits/(Pixel*Frame) : 0.307
Stream size : 882 MiB (92%)
Audio
ID : 128 (0x80)
Format : AC-3
Format/Info : Audio Coding 3
Mode extension : CM (complete main)
Duration : 38mn 48s
Bit rate mode : Constant
Bit rate : 192 Kbps
Channel(s) : 2 channels
Channel positions : Front: L R
Sampling rate : 48.0 KHz
Bit depth : 16 bits
Compression mode : Lossy
Video delay : -352ms
Stream size : 53.3 MiB (6%)
Menu

Скриншоты меню

Скриншоты

Скриншоты доп. материалов

[Profile]  [PM] 
Display posts:    
Reply to topic

Current time is: 17-Apr 03:38

All times are UTC + 2



You cannot post new topics in this forum
You cannot reply to topics in this forum
You cannot edit your posts in this forum
You cannot delete your posts in this forum
You cannot vote in polls in this forum
You cannot attach files in this forum
You cannot download files in this forum