Хотел бы я быть здесь / Wish I Was Here (Зак Брафф / Zach Braff ) [2014, США, Драма, комедия, DVD5] R5 Dub

Reply to topic
 
Author
Message

Faust ®

Gender: Unknown

Longevity: 9 years 6 months

Posts: 14955

Reputation: 0 [+] [-]

Faust · Post 21-Oct-2014 00:20

[Quote] 

Хотел бы я быть здесь / Wish I Was Here«Жизнь — это шанс. Воспользуйся им» Страна: США
Жанр: Драма, комедия
Год выпуска: 2014
релиз на DVD: 28 октября 2014, «Парадиз / Активижен»,
Продолжительность: 01:41:49
Перевод: Профессиональный (дублированный)
Cубтитры: отсутствуют
Режиссер: Зак Брафф / Zach Braff
В ролях: Зак Брафф, Джош Гэд, Кейт Хадсон, Джим Парсонс, Джоуи Кинг, Эшли Грин, Мэнди Пэтинкин, Дональд Фейзон, Джеймс Эйвери, Майкл Уэстон, Пирс Ганьон, Александр Чаплин, Лесли Дэвид Бейкер, Аллан Рич, МакКейли Миллер
Роли дублировали актеры: Евгений Баженов, Полина Щербакова, Анна Денисова, Михаил Тихонов, Денис Яковлев
Описание: История Айдана Блума — актера, отца и мужа, который в свои 35 лет все еще пытается найти себя, цель своей жизни. Уча жизни двух своих детей, Айдан постепенно обнаруживает некоторые части себя, которые он не мог найти раньше…

Дополнительные материалы:
- Смотрите на DVD
Меню: есть, на русском
Тип релиза: DVD5 R5
Контейнер: DVD-Video
Видео кодек: MPEG2
Аудио кодек: AC3
Видео: PAL 16:9 (720x576) VBR Auto Letterboxed ~ 5658.43 kbps avg
Аудио: Russian (Dolby AC3, 6 ch, 384 kbps)

DVDInfo

Title: Wish_I_Was_Here_2014_DVD5_NiP
Size: 4.26 Gb ( 4 463 918,00 KBytes ) - DVD-5
Enabled regions: 1, 2, 3, 4, 5, 6, 7, 8
VTS_01 :
Play Length: 01:41:49
Video: PAL 16:9 (720x576) VBR, Auto Letterboxed
Audio:
Russian (Dolby AC3, 6 ch)
VTS_02 :
Play Length: 00:05:31
Video: PAL 16:9 (720x576) VBR, Auto Letterboxed
Audio:
Not specified (Dolby AC3, 2 ch)
* Menus Information *
VIDEO_TS Menu
Video:
PAL 16:9 (720x576) VBR
Auto Pan&Scan
Audio:
Not specified (Dolby AC3, 2 ch)
Russian Language Unit :
Title Menu
VTS_01 Menu
Video:
PAL 16:9 (720x576) VBR
Auto Pan&Scan
Audio:
Not specified (Dolby AC3, 6 ch)
Russian Language Unit :
Root Menu
Chapter (PTT) Menu
VTS_02 Menu
Video:
NTSC 4:3 (720x480) VBR
Auto Pan&Scan, Auto Letterboxed
Russian Language Unit :
Root Menu

MediaInfo

Общее
Полное имя : I:\Wish_I_Was_Here_2014_DVD5_NiP\VIDEO_TS\VTS_01_3.VOB
Формат : MPEG-PS
Размер файла : 1024 Мбайт
Продолжительность : 25 м.
Режим общего битрейта : Переменный
Общий поток : 5583 Кбит/сек
Видео
Идентификатор : 224 (0xE0)
Формат : MPEG Video
Версия формата : Version 2
Профиль формата : Main@Main
Параметр BVOP формата : Да
Параметр матрицы формата : Выборочная
Параметр GOP формата : Variable
Продолжительность : 25 м.
Вид битрейта : Переменный
Битрейт : 5088 Кбит/сек
Максимальный битрейт : 9000 Кбит/сек
Ширина : 720 пикселей
Высота : 576 пикселей
Соотношение сторон : 16:9
Частота кадров : 25,000 кадров/сек
Стандарт вещания : PAL
Цветовое пространство : YUV
Субдискретизация насыщенности : 4:2:0
Битовая глубина : 8 бит
Тип развёртки : Прогрессивная
Порядок развёртки : Верхнее поле первое
Метод сжатия : С потерями
Бит/(Пиксели*Кадры) : 0.491
Временной код первого кадра : 01:49:59:11
Оригинал временного кода : Group of pictures header
Размер потока : 933 Мбайт (91%)
Аудио
Идентификатор : 189 (0xBD)-128 (0x80)
Формат : AC-3
Формат/Информация : Audio Coding 3
Расширение режима : CM (complete main)
Параметр Endianness формата : Big
Режим смешивания : DVD-Video
Продолжительность : 25 м.
Вид битрейта : Постоянный
Битрейт : 384 Кбит/сек
Каналы : 6 каналов
Расположение каналов : Front: L C R, Side: L R, LFE
Частота : 48,0 КГц
Битовая глубина : 16 бит
Метод сжатия : С потерями
Задержка видео : -672 мс.
Размер потока : 70,4 Мбайт (7%)
Меню

Скриншоты меню

Скриншоты

[Profile]  [PM] 
Display posts:    
Reply to topic

Current time is: 14-Apr 01:19

All times are UTC + 2



You cannot post new topics in this forum
You cannot reply to topics in this forum
You cannot edit your posts in this forum
You cannot delete your posts in this forum
You cannot vote in polls in this forum
You cannot attach files in this forum
You cannot download files in this forum