Святые мученики проклятых / Saints-Martyrs-des-Damnés (Робин Обер / Robin Aubert) [2005, Канада, мистика, детектив, DVD9 (Custom)] VO (Гундос) + Sub Rus + Original Fre

Reply to topic
 
Author
Message

Faust ®

Gender: Unknown

Longevity: 9 years 6 months

Posts: 14955

Reputation: 0 [+] [-]

Faust · Post 30-Oct-2014 01:55

[Quote] 

Святые мученики проклятых / Saints-Martyrs-des-Damnés
Страна: Канада
Жанр: мистика, детектив
Год выпуска: 2005
Продолжительность: 01:56:46
Перевод: Одноголосый закадровый Гундос
Cубтитры: русские [tROXXY]
Оригинальная аудиодорожка: французский
Режиссер: Робин Обер / Robin Aubert
В ролях: Изабель Блэ, Сильви Бучер, Франсуа Шенье, Пьер Коллин, Мишель Форге, Карл Хеннеберт-Фолкнер, Жермен Уд, Рено Ласелль-Бурдо, Андре Лакосте, Матильда Лавин
Описание: Двое репортёров мелкой жёлтой газетёнки отправляются в деревню, в которой таинственным образом пропадают люди. Расположившись в гостинице, один из них отправляется фотографировать, а другой перекусить в местную забегаловку. В итоге первый пропадает, а со вторым местные жители ведут себя так, будто бы его здесь никогда не было и лучше бы ему и не быть совсем. Понимая, что здесь действительно происходит что-то из ряда вон выходящее он начинает пытаться во всём разобраться...
Доп. информация: За оригинальный диск большое спасибо edus67
Русские субтитры взяты с этой раздачи http://torrentsland.com.ua/forum/viewtopic.php?t=3874445 автору большое спасибо.
Русская звуковая дорожка взята с этой раздачи http://torrentsland.com.ua/forum/viewtopic.php?t=4050030 автору большое спасибо.
При пересборе двд были использованы программы:
PgcDemux - разделение компонентов диска на файлы
Muxman - мультиплексирование и авторинг DVD
VobBlanker - реавторинг DVD

Скрин завершения проекта

Бонусы: Коментарии, трейлеры, удалённые сцены
Сэмпл: http://sendfile.su/1040168
Тип релиза: DVD9 (Custom)
Контейнер: DVD-Video
Видео: NTSC 16:9 (720x480) VBR Auto Pan&Scan
Аудио: Russian (Dolby AC3, 192 Кбит/сек, 2 ch)
Аудио 2: Francais (Dolby AC3, 448 Кбит/сек, 6 ch)
Аудио 3: Francais (Dolby AC3, 192 Кбит/сек, 2 ch)
Формат субтитров: softsub (SRT)

DVDInfo

Title: SAMSUNG
Size: 7.52 Gb ( 7 887 440 KBytes ) - DVD-9
Enabled regions: 1, 2, 3, 4, 5, 6, 7, 8
VTS_01 :
Play Length: 00:00:20
Video: NTSC 4:3 (720x480) VBR
VTS_02 :
Play Length: 00:00:15
Video: NTSC 4:3 (720x480) VBR
Audio:
English (Dolby AC3, 2 ch)
VTS_03 :
Play Length: 00:01:52
Video: NTSC 4:3 (720x480) VBR
Audio:
Francais (Dolby AC3, 2 ch)
VTS_04 :
Play Length: 01:56:46
Video: NTSC 16:9 (720x480) VBR, Auto Pan&Scan
Audio:
Russian (Dolby AC3, 2 ch)
Francais (Dolby AC3, 6 ch)
Francais (Dolby AC3, 2 ch)
Subtitles:
Russian
English
VTS_05 :
Play Length: 00:16:00
Video: NTSC 4:3 (720x480) VBR
Audio:
Francais (Dolby AC3, 2 ch)
Francais (Dolby AC3, 2 ch)
Subtitles:
English
VTS_06 :
Play Length: 00:04:43
Video: NTSC 4:3 (720x480) VBR
Audio:
Francais (Dolby AC3, 2 ch)
Francais (Dolby AC3, 2 ch)
Subtitles:
English
VTS_07 :
Play Length: 00:00:52
Video: NTSC 4:3 (720x480) VBR
Audio:
Francais (Dolby AC3, 2 ch)
Francais (Dolby AC3, 2 ch)
Subtitles:
English
VTS_08 :
Play Length: 00:01:15
Video: NTSC 4:3 (720x480) VBR
Audio:
Francais (Dolby AC3, 2 ch)
Francais (Dolby AC3, 2 ch)
Subtitles:
English
VTS_09 :
Play Length: 00:01:05
Video: NTSC 4:3 (720x480) VBR
Audio:
Francais (Dolby AC3, 2 ch)
Francais (Dolby AC3, 2 ch)
Subtitles:
English
VTS_10 :
Play Length: 00:00:10
Video: NTSC 4:3 (720x480) VBR
Audio:
Francais (Dolby AC3, 2 ch)
Francais (Dolby AC3, 2 ch)
Subtitles:
English
VTS_11 :
Play Length: 00:02:39
Video: NTSC 4:3 (720x480) VBR
Audio:
Francais (Dolby AC3, 2 ch)
Francais (Dolby AC3, 2 ch)
Subtitles:
English
VTS_12 :
Play Length: 00:00:30
Video: NTSC 4:3 (720x480) VBR
Audio:
Francais (Dolby AC3, 2 ch)
Francais (Dolby AC3, 2 ch)
Subtitles:
English
VTS_13 :
Play Length: 00:04:26
Video: NTSC 4:3 (720x480) VBR
Audio:
Francais (Dolby AC3, 2 ch)
Francais (Dolby AC3, 2 ch)
Subtitles:
English
VTS_14 :
Play Length: 00:00:52
Video: NTSC 4:3 (720x480) VBR
Audio:
Francais (Dolby AC3, 2 ch)
Francais (Dolby AC3, 2 ch)
Subtitles:
English
VTS_15 :
Play Length: 00:02:16
Video: NTSC 4:3 (720x480) VBR
Audio:
Francais (Dolby AC3, 2 ch)
Francais (Dolby AC3, 2 ch)
Subtitles:
English
VTS_16 :
Play Length: 00:00:42
Video: NTSC 4:3 (720x480) VBR
Audio:
Francais (Dolby AC3, 2 ch)
Francais (Dolby AC3, 2 ch)
Subtitles:
English
VTS_17 :
Play Length: 00:03:01
Video: NTSC 4:3 (720x480) VBR
Audio:
Francais (Dolby AC3, 2 ch)
Francais (Dolby AC3, 2 ch)
Subtitles:
English
VTS_18 :
Play Length: 00:02:32
Video: NTSC 4:3 (720x480) VBR
Audio:
Francais (Dolby AC3, 2 ch)
Francais (Dolby AC3, 2 ch)
Subtitles:
English
VTS_19 :
Play Length: 00:02:47
Video: NTSC 4:3 (720x480) VBR
Audio:
Francais (Dolby AC3, 2 ch)
Francais (Dolby AC3, 2 ch)
Subtitles:
English
VTS_20 :
Play Length: 00:01:42
Video: NTSC 4:3 (720x480) VBR
Audio:
Francais (Dolby AC3, 2 ch)
Francais (Dolby AC3, 2 ch)
Subtitles:
English
VTS_21 :
Play Length: 00:01:31
Video: NTSC 4:3 (720x480) VBR
Audio:
Francais (Dolby AC3, 2 ch)
Francais (Dolby AC3, 2 ch)
Subtitles:
English
Menu Video:
NTSC 4:3 (720x480) VBR
Menu English Language Unit :
Root Menu

MediaInfo

Общее
Полное имя : K:\Saints-Martyrs-des-Damnes_2005\VIDEO_TS\VTS_04_1.VOB
Формат : MPEG-PS
Размер файла : 1024 Мбайт
Продолжительность : 22 м.
Режим общего битрейта : Переменный
Общий поток : 6457 Кбит/сек
Видео
Идентификатор : 224 (0xE0)
Формат : MPEG Video
Версия формата : Version 2
Профиль формата : Main@Main
Параметр BVOP формата : Да
Параметр матрицы формата : Выборочная
Параметр GOP формата : M=3, N=15
Продолжительность : 22 м.
Вид битрейта : Переменный
Битрейт : 5497 Кбит/сек
Максимальный битрейт : 5700 Кбит/сек
Ширина : 720 пикселей
Высота : 480 пикселей
Соотношение сторон : 16:9
Частота кадров : 29,970 кадров/сек
Стандарт вещания : NTSC
Цветовое пространство : YUV
Субдискретизация насыщенности : 4:2:0
Битовая глубина : 8 бит
Тип развёртки : Чересстрочная
Порядок развёртки : Верхнее поле первое
Метод сжатия : С потерями
Бит/(Пиксели*Кадры) : 0.531
Размер потока : 872 Мбайт (85%)
Аудио #1
Идентификатор : 189 (0xBD)-128 (0x80)
Формат : AC-3
Формат/Информация : Audio Coding 3
Расширение режима : CM (complete main)
Параметр Endianness формата : Big
Режим смешивания : DVD-Video
Продолжительность : 22 м.
Вид битрейта : Постоянный
Битрейт : 192 Кбит/сек
Каналы : 2 канала
Расположение каналов : Front: L R
Частота : 48,0 КГц
Битовая глубина : 16 бит
Метод сжатия : С потерями
Задержка видео : -66 мс.
Размер потока : 30,4 Мбайт (3%)
Аудио #2
Идентификатор : 189 (0xBD)-129 (0x81)
Формат : AC-3
Формат/Информация : Audio Coding 3
Расширение режима : CM (complete main)
Параметр Endianness формата : Big
Режим смешивания : DVD-Video
Продолжительность : 22 м.
Вид битрейта : Постоянный
Битрейт : 448 Кбит/сек
Каналы : 6 каналов
Расположение каналов : Front: L C R, Side: L R, LFE
Частота : 48,0 КГц
Битовая глубина : 16 бит
Метод сжатия : С потерями
Задержка видео : -66 мс.
Размер потока : 71,0 Мбайт (7%)
Аудио #3
Идентификатор : 189 (0xBD)-130 (0x82)
Формат : AC-3
Формат/Информация : Audio Coding 3
Расширение режима : CM (complete main)
Параметр Endianness формата : Big
Режим смешивания : DVD-Video
Продолжительность : 22 м.
Вид битрейта : Постоянный
Битрейт : 192 Кбит/сек
Каналы : 2 канала
Расположение каналов : Front: L R
Частота : 48,0 КГц
Битовая глубина : 16 бит
Метод сжатия : С потерями
Задержка видео : -66 мс.
Размер потока : 30,4 Мбайт (3%)
Текст #1
Идентификатор : 189 (0xBD)-32 (0x20)
Формат : RLE
Формат/Информация : Run-length encoding
Режим смешивания : DVD-Video
Задержка видео : 23 с.
Текст #2
Идентификатор : 189 (0xBD)-33 (0x21)
Формат : RLE
Формат/Информация : Run-length encoding
Режим смешивания : DVD-Video
Задержка видео : 23 с.
Текст #3
Идентификатор : 224 (0xE0)-CC3
Формат : EIA-608
Режим смешивания : DVD-Video
Режим смешивания, доп. информация : Muxed in Video #1
Вид битрейта : Постоянный
Размер потока : 0,00 байт (0%)
Меню

Постеры

Скриншоты меню

Скриншоты

[Profile]  [PM] 
Display posts:    
Reply to topic

Current time is: 14-Apr 01:48

All times are UTC + 2



You cannot post new topics in this forum
You cannot reply to topics in this forum
You cannot edit your posts in this forum
You cannot delete your posts in this forum
You cannot vote in polls in this forum
You cannot attach files in this forum
You cannot download files in this forum