Biктor / Viкtоr (Fiлiппe Maртинec / Рhiliрре Маrtinеz) [2014, Франция, Россия, боевик, триллер, DVD5] R5 Dub

Reply to topic
 
Author
Message

Faust ®

Gender: Unknown

Longevity: 9 years 6 months

Posts: 14969

Reputation: 0 [+] [-]

Faust · Post 31-Oct-2014 01:55

[Quote] 

-Виктор / Viktor-«Отец... он готов на всё» -Страна: Франция, Россия
Студия: B-Tween, Kapara Pictures
Жанр: боевик, триллер
Год выпуска: 2014
Мировая премьера: 4 сентября 2014
Российская премьера: 4 сентября 2014, «Парадиз»
Дата выхода DVD: 11 ноября 2014, «Парадиз / Активижен»
Дата выхода Blu-Ray: 11 ноября 2014, «Парадиз / Активижен»
Продолжительность: 01:33:55
Перевод: Профессиональный (дублированный) [Лицензия]
Cубтитры: нет
Оригинальная аудиодорожка: нет-Режиссер: Филиппе Мартинес / Philippe Martinez-В ролях: Жерар Депардьё, Элизабет Хёрли, Евгения Ахременко, Эли Данкер, Фредерик Дюкастель, Жан Баптисте Фильон, Денис Карасёв, Полина Кузминская, Соленн Мариани, Марчелло Маццарелла-Описание: В центре сюжета история бывшего гангстера Виктора Ламбера, специализировавшегося на похищении произведений искусства. Когда-то он жил в России и с тех пор любит эту страну, а также свою бывшую сообщницу Александру Иванову. Проведя пятнадцать лет за решеткой во Франции, Виктор Ламбер возвращается в Москву, чтобы отомстить за смерть своего сына, убитого контрабандистами бриллиантов. Верная подруга Александра помогает ему в этом деле.-Бонусы: Скоро на DVD- -Качество: DVD5 R5
Формат: DVD-Video
Видео кодек: MPEG2
Аудио кодек: AC3
Видео: PAL 16:9 (720x576(0.540)) MPEG Video, 25,000 кадр/сек, 5601 Кбит/сек
Аудио: Russian (Dolby AC3, 6 ch) 384 Кбит/сек, 48,0 КГц--

DVDInfo

Title: Victor.2014.DVD5
Size: 4.19 Gb ( 4 397 696,00 KBytes ) - DVD-5
Enabled regions: 1, 2, 3, 4, 5, 6, 7, 8
VTS_01 :
Play Length: 01:33:55
Video: PAL 16:9 (720x576) VBR, Auto Letterboxed
Audio:
Russian (Dolby AC3, 6 ch)
VTS_02 :
Play Length: 00:06:24
Video: PAL 16:9 (720x576) VBR, Auto Letterboxed
Audio:
Not specified (Dolby AC3, 2 ch)
* Menus Information *
VIDEO_TS Menu
Video:
PAL 16:9 (720x576) VBR
Auto Pan&Scan
Audio:
Not specified (Dolby AC3, 2 ch)
Russian Language Unit :
Title Menu
VTS_01 Menu
Video:
PAL 16:9 (720x576) VBR
Auto Pan&Scan
Audio:
Not specified (Dolby AC3, 6 ch)
Russian Language Unit :
Root Menu
Chapter (PTT) Menu
VTS_02 Menu
Video:
NTSC 4:3 (720x480) VBR
Auto Pan&Scan, Auto Letterboxed
Russian Language Unit :
Root Menu

MediaInfo

Общее
Полное имя : F:\Новинки 2014\Victor.2014.DVD5\VIDEO_TS\VTS_01_2.VOB
Формат : MPEG-PS
Размер файла : 1024 Мбайт
Продолжительность : 23 м.
Режим общего битрейта : Переменный
Общий поток : 6106 Кбит/сек
Видео
Идентификатор : 224 (0xE0)
Формат : MPEG Video
Версия формата : Version 2
Профиль формата : Main@Main
Параметр BVOP формата : Да
Параметр матрицы формата : Выборочная
Параметр GOP формата : Variable
Продолжительность : 23 м.
Вид битрейта : Переменный
Битрейт : 5601 Кбит/сек
Максимальный битрейт : 9000 Кбит/сек
Ширина : 720 пикселей
Высота : 576 пикселей
Соотношение сторон : 16:9
Частота кадров : 25,000 кадров/сек
Стандарт вещания : PAL
Цветовое пространство : YUV
Субдискретизация насыщенности : 4:2:0
Битовая глубина : 8 бит
Тип развёртки : Прогрессивная
Метод сжатия : С потерями
Бит/(Пиксели*Кадры) : 0.540
Временной код первого кадра : 01:25:04:21
Оригинал временного кода : Group of pictures header
Размер потока : 939 Мбайт (92%)
Аудио
Идентификатор : 189 (0xBD)-128 (0x80)
Формат : AC-3
Формат/Информация : Audio Coding 3
Расширение режима : CM (complete main)
Параметр Endianness формата : Big
Режим смешивания : DVD-Video
Продолжительность : 23 м.
Вид битрейта : Постоянный
Битрейт : 384 Кбит/сек
Каналы : 6 каналов
Расположение каналов : Front: L C R, Side: L R, LFE
Частота : 48,0 КГц
Битовая глубина : 16 бит
Метод сжатия : С потерями
Задержка видео : -632 мс.
Размер потока : 64,4 Мбайт (6%)

Скриншоты меню

Скриншоты фильма


-
-Раздача от группы:
[Profile]  [PM] 
Display posts:    
Reply to topic

Current time is: 17-Apr 05:01

All times are UTC + 2



You cannot post new topics in this forum
You cannot reply to topics in this forum
You cannot edit your posts in this forum
You cannot delete your posts in this forum
You cannot vote in polls in this forum
You cannot attach files in this forum
You cannot download files in this forum