Весна в Париже / Un printemps a Paris (Жак Браль / Jacques Bral) [2006, Франция, триллер, криминал, DVD5] DVO + Sub Ukr + Original Fre

Reply to topic
 
Author
Message

Faust ®

Gender: Unknown

Longevity: 9 years 6 months

Posts: 14961

Reputation: 0 [+] [-]

Faust · Post 04-Nov-2014 01:25

[Quote] 

Весна в Париже / Un printemps à Paris
Страна: Франция
Студия: Thunder Films International
Жанр: криминальный триллер
Год выпуска: 2006
Продолжительность: 01:32:39
Перевод: Профессиональный (двухголосый закадровый)
Cубтитры: украинские
Оригинальная аудиодорожка: французский
Режиссер: Жак Браль / Jacques Bral
В ролях: Эдди Митчелл, Сагамор Стевенен, Пьер Сантини, Паскаль Арбийо, Жерар Жюньо, Жан-Франсуа Бальмер, Жан-Мишель Дюпюи, Жеральдин Данон, Максим Леру, Флоранс Дарель, Анн Руссель, Ксавье Делюк, Габриэль Форе, Фредерик Жессюа, Марианн Эпен, Жан-Мари Моде, Жан-Пьер Тома, Пьер Шоле
Описание: Жорж отсидел пять лет в тюрьме и полон решимости начать новую жизнь. Но встреча со своим старым подельником Пьеро опять возвращает его на кривую дорожку. Новое дело, связанное с драгоценностями богатой леди, выглядит сущим пустяком. Однако на практике все происходит иначе и совсем не по их плану.
Бонусы: нет
Меню: нет

Сэмпл: http://multi-up.com/1005601
Тип релиза: DVD5
Контейнер: DVD-Video
Видео: PAL 16:9 (720x576(0.529)) MPEG Video, 25,000 кадр/сек, 5483 Кбит/сек
Аудио: Russian (Dolby AC3, 6ch) 384 Кбит/сек, 48,0 КГц
Аудио 2: Francais (Dolby AC3, 6ch) 384 Кбит/сек, 48,0 КГц
Формат субтитров: prerendered (DVD/IDX+SUB)

Доп. информация

Дистрибьютор «Н-Кино»

DVDInfo

Title:
Size: 4.13 Gb ( 4 331 730 KBytes ) - DVD-5
Enabled regions: 1, 2, 3, 4, 5, 6, 7, 8
VTS_01 :
Play Length: 01:32:39
Video: PAL 16:9 (720x576) VBR, Auto Letterboxed
Audio:
Russian (Dolby AC3, 6 ch)
Francais (Dolby AC3, 6 ch)
Subtitles:
Ukrainian
Menu Video:
PAL 4:3 (720x576) VBR
Auto Pan&Scan, Auto Letterboxed
Menu Language Unit :
Chapter (PTT) Menu

MediaInfo

General
Complete name : D:\news\Весна в Париже\VIDEO_TS\VTS_01_1.VOB
Format : MPEG-PS
File size : 1 024 MiB
Duration : 22mn 26s
Overall bit rate : 6 378 Kbps
Video
ID : 224 (0xE0)
Format : MPEG Video
Format version : Version 2
Format profile : Main@Main
Format settings, BVOP : Yes
Format settings, Matrix : Default
Format settings, GOP : M=3, N=15
Duration : 22mn 26s
Bit rate mode : Variable
Bit rate : 5 483 Kbps
Nominal bit rate : 9 000 Kbps
Width : 720 pixels
Height : 576 pixels
Display aspect ratio : 2.35:1
Frame rate : 25.000 fps
Standard : PAL
Color space : YUV
Chroma subsampling : 4:2:0
Bit depth : 8 bits
Scan type : Interlaced
Scan order : Top Field First
Bits/(Pixel*Frame) : 0.529
Stream size : 880 MiB (86%)
Audio #1
ID : 128 (0x80)
Format : AC-3
Format/Info : Audio Coding 3
Mode extension : ME (music and effects)
Duration : 22mn 26s
Bit rate mode : Constant
Bit rate : 384 Kbps
Channel(s) : 6 channels
Channel positions : Front: L C R, Side: L R, LFE
Sampling rate : 48.0 KHz
Video delay : -80ms
Stream size : 61.6 MiB (6%)
Audio #2
ID : 129 (0x81)
Format : AC-3
Format/Info : Audio Coding 3
Mode extension : CM (complete main)
Duration : 22mn 26s
Bit rate mode : Constant
Bit rate : 384 Kbps
Channel(s) : 6 channels
Channel positions : Front: L C R, Side: L R, LFE
Sampling rate : 48.0 KHz
Video delay : -80ms
Stream size : 61.6 MiB (6%)
Menu

Скриншоты

Постеры

[Profile]  [PM] 
Display posts:    
Reply to topic

Current time is: 14-Apr 21:22

All times are UTC + 2



You cannot post new topics in this forum
You cannot reply to topics in this forum
You cannot edit your posts in this forum
You cannot delete your posts in this forum
You cannot vote in polls in this forum
You cannot attach files in this forum
You cannot download files in this forum