Оставленные / Left Behind (Вик Армстронг / Vic Armstrong ) [2014, США, Фантастика, триллер, драма, DVD5] R5 Dub

Reply to topic
 
Author
Message

Faust ®

Gender: Unknown

Longevity: 9 years 6 months

Posts: 14961

Reputation: 0 [+] [-]

Faust · Post 14-Nov-2014 01:20

[Quote] 

Оставленные / Left Behind«Начало конца» Страна: США
Жанр: Фантастика, триллер, драма
Год выпуска: 2014
релиз на DVD: 11 ноября 2014, «Lizard Cinema Trade»
релиз на Blu-Ray: 11 ноября 2014, «Lizard Cinema Trade»
Продолжительность: 01:45:35
Перевод: Профессиональный (дублированный)
Cубтитры: отсутствуют
Режиссер: Вик Армстронг / Vic Armstrong
В ролях: Николас Кейдж, Чад Майкл Мюррэй, Касси Томсон, Никки Уилан, Джордин Спаркс, Лиа Томпсон, Куинтон Аарон, Мартин Клебба, Лаура Кайот, Стефани Онор
Описание: История летчика Рэйфорда Стила, столкнувшегося во время рейса с исчезновением нескольких пассажиров прямо из салона самолета. Вскоре становится известно о случаях бесследного исчезновения и в других местах. Людей охватывает паника.

Дополнительные материалы:
- отсутствуют
Меню: есть, на русском
Тип релиза: DVD5 R5
Контейнер: DVD-Video
Видео кодек: MPEG2
Аудио кодек: AC3
Видео: PAL 16:9 (720x576) VBR Auto Letterboxed ~ 5554.06 kbps avg
Аудио: Russian (Dolby AC3, 6 ch, 448 kbps)

DVDInfo

Title: Left.Behind.2014.DVD5.NiP
Size: 4.11 Gb ( 4 311 190,00 KBytes ) - DVD-5
Enabled regions: 1, 2, 3, 4, 5, 6, 7, 8
VTS_01 :
Play Length: 01:45:35
Video: PAL 16:9 (720x576) VBR, Auto Letterboxed
Audio:
English (Dolby AC3, 6 ch)
VTS_02 :
Play Length: 00:00:08
Video: PAL 4:3 (720x576) VBR
VTS_03 :
Play Length: 00:00:04+00:00:04
Video: PAL 16:9 (720x576) VBR, Auto Letterboxed
VTS_04 :
Play Length: 00:00:12
Video: PAL 16:9 (720x576) VBR, Auto Letterboxed
Subtitles:
English
VTS_05 :
Play Length: 00:00:10
Video: PAL 4:3 (720x576) VBR
Audio:
English (Dolby AC3, 2 ch)

MediaInfo

Общее
Полное имя : I:\Left.Behind.2014.DVD5.NiP\VIDEO_TS\VTS_01_3.VOB
Формат : MPEG-PS
Размер файла : 1024 Мбайт
Продолжительность : 27 м.
Режим общего битрейта : Переменный
Общий поток : 5187 Кбит/сек
Видео
Идентификатор : 224 (0xE0)
Формат : MPEG Video
Версия формата : Version 2
Профиль формата : Main@Main
Параметр BVOP формата : Да
Параметр матрицы формата : Выборочная
Параметр GOP формата : M=3, N=15
Продолжительность : 27 м.
Вид битрейта : Переменный
Битрейт : 4635 Кбит/сек
Максимальный битрейт : 8000 Кбит/сек
Ширина : 720 пикселей
Высота : 576 пикселей
Соотношение сторон : 16:9
Частота кадров : 25,000 кадров/сек
Стандарт вещания : PAL
Цветовое пространство : YUV
Субдискретизация насыщенности : 4:2:0
Битовая глубина : 8 бит
Тип развёртки : Чересстрочная
Порядок развёртки : Верхнее поле первое
Метод сжатия : С потерями
Бит/(Пиксели*Кадры) : 0.447
Временной код первого кадра : 00:45:15:19
Оригинал временного кода : Group of pictures header
Размер потока : 915 Мбайт (89%)
Аудио
Идентификатор : 189 (0xBD)-128 (0x80)
Формат : AC-3
Формат/Информация : Audio Coding 3
Расширение режима : CM (complete main)
Параметр Endianness формата : Big
Режим смешивания : DVD-Video
Продолжительность : 27 м.
Вид битрейта : Постоянный
Битрейт : 448 Кбит/сек
Каналы : 6 каналов
Расположение каналов : Front: L C R, Side: L R, LFE
Частота : 48,0 КГц
Битовая глубина : 16 бит
Метод сжатия : С потерями
Задержка видео : -864 мс.
Размер потока : 88,5 Мбайт (9%)
Меню

Скриншоты меню

Скриншоты

[Profile]  [PM] 
Display posts:    
Reply to topic

Current time is: 14-Apr 21:35

All times are UTC + 2



You cannot post new topics in this forum
You cannot reply to topics in this forum
You cannot edit your posts in this forum
You cannot delete your posts in this forum
You cannot vote in polls in this forum
You cannot attach files in this forum
You cannot download files in this forum