Снова 16 / 16 ans ou presque (Тристан Сегела / Tristan Séguéla) [2013, Франция, комедия, семейный, DVD5] R5 Dub

Reply to topic
 
Author
Message

Faust ®

Gender: Unknown

Longevity: 9 years 6 months

Posts: 14969

Reputation: 0 [+] [-]

Faust · Post 24-Nov-2014 01:20

[Quote] 

-Снова 16 / 16 ans ou presque-«Играй гормон!» -Страна: Франция
Студия: Canal+ [fr], Ciné, La Banque Postale Image 6, Les films du 24, Soficinéma 9, TF1, TF1 Droits Audiovisuels, TF1 Films Production
Жанр: комедия, семейный
Год выпуска: 2013
Мировая премьера: 22 сентября 2013
Российская премьера: 20 февраля 2014, «Каравелла DDC»
Дата выхода DVD: 5 августа 2014, «CD Land»
Продолжительность: 01:23:44
Перевод: Профессиональный (дублированный) [Лицензия]
Cубтитры: нет
Оригинальная аудиодорожка: нет-Режиссер: Тристан Сегела / Tristan Séguéla-В ролях: Лоран Лафитт, Кристоф Малавуа, Жюдит Эль Зейн, Джонатан Коэн, Франсуа Роллин, Анн Кановас, Пабло Поли, Александр Принц-Описание: Арно Мюстье — само олицетворение успеха. Юрист и красноречивый философ, который своими словами умеет завести слушателей в тупик. Но в один прекрасный момент все начинает рушиться. Пара прыщей, странное поведение — и Арно получает диагноз — С. П. — синдром подростка. Это одно из редчайших расстройств, которым страдают взрослые мужчины, вновь проходя через кризис шестнадцати лет. Арно открывает для себя целый мир подростков, удивляя своим поведением всех окружающих. И первым, кто видит героя в новом «амплуа», оказывается его собственный брат-подросток-Бонусы: нет- -Релиз группы: -Качество: DVD5 R5
Формат: DVD-Video
Видео кодек: MPEG2
Аудио кодек: AC3
Видео: PAL 16:9 (720x576(0.502)) MPEG Video, 25,000 кадр/сек, 5202 Кбит/сек
Аудио: Russian (Dolby AC3, 6 ch) 448 Кбит/сек, 48,0 КГц--

DVDInfo

Title: Snova.16.2013.DVD5
Size: 3.53 Gb ( 3 696 466,00 KBytes ) - DVD-5
Enabled regions: 1, 2, 3, 4, 5, 6, 7, 8
VTS_01 :
Play Length: 00:00:19
Video: PAL 16:9 (720x576) VBR, Auto Pan&Scan, Auto Letterboxed
Audio:
Not specified (Dolby AC3, 2 ch)
VTS_02 :
Play Length: 01:23:44
Video: PAL 16:9 (720x576) VBR, Auto Letterboxed
Audio:
Not specified (Dolby AC3, 6 ch)
* Menus Information *
VIDEO_TS Menu
Video:
PAL 16:9 (720x576) VBR
Auto Pan&Scan, Auto Letterboxed
English Language Unit :
Title Menu
VTS_01 Menu
Video:
PAL 16:9 (720x576) VBR
Auto Pan&Scan, Auto Letterboxed
Audio:
Not specified (Dolby AC3, 6 ch)
English Language Unit :
Root Menu
VTS_02 Menu
Video:
PAL 4:3 (720x576) VBR
English Language Unit :
Root Menu

MediaInfo

Общее
Полное имя : F:\Новинки 2014\Snova.16.2013.DVD5\VIDEO_TS\VTS_02_2.VOB
Формат : MPEG-PS
Размер файла : 1024 Мбайт
Продолжительность : 24 м.
Режим общего битрейта : Переменный
Общий поток : 5765 Кбит/сек
Видео
Идентификатор : 224 (0xE0)
Формат : MPEG Video
Версия формата : Version 2
Профиль формата : Main@Main
Параметр BVOP формата : Да
Параметр матрицы формата : Выборочная
Параметр GOP формата : Variable
Format_Settings_PictureStructure : Frame
Продолжительность : 24 м.
Вид битрейта : Переменный
Битрейт : 5202 Кбит/сек
Максимальный битрейт : 9000 Кбит/сек
Ширина : 720 пикселей
Высота : 576 пикселей
Соотношение сторон : 16:9
Частота кадров : 25,000 кадров/сек
Стандарт вещания : PAL
Цветовое пространство : YUV
Субдискретизация насыщенности : 4:2:0
Битовая глубина : 8 бит
Тип развёртки : Чересстрочная
Порядок развёртки : Верхнее поле первое
Метод сжатия : С потерями
Бит/(Пиксели*Кадры) : 0.502
Временной код первого кадра : 00:25:30:15
Оригинал временного кода : Group of pictures header
Размер потока : 924 Мбайт (90%)
Аудио
Идентификатор : 189 (0xBD)-128 (0x80)
Формат : AC-3
Формат/Информация : Audio Coding 3
Расширение режима : CM (complete main)
Параметр Endianness формата : Big
Режим смешивания : DVD-Video
Продолжительность : 24 м.
Вид битрейта : Постоянный
Битрейт : 448 Кбит/сек
Каналы : 6 каналов
Расположение каналов : Front: L C R, Side: L R, LFE
Частота : 48,0 КГц
Битовая глубина : 16 бит
Метод сжатия : С потерями
Задержка видео : -392 мс.
Размер потока : 79,6 Мбайт (8%)

Скриншоты меню

Скриншоты фильма


-
-Раздача от группы:
[Profile]  [PM] 
Display posts:    
Reply to topic

Current time is: 17-Apr 04:24

All times are UTC + 2



You cannot post new topics in this forum
You cannot reply to topics in this forum
You cannot edit your posts in this forum
You cannot delete your posts in this forum
You cannot vote in polls in this forum
You cannot attach files in this forum
You cannot download files in this forum