Если я останусь / If I Stay (Р.Дж. Катлер / R.J. Cutler) [2014, США, Драма, DVD9] R5 Dub Sub rus |Лицензия|

Reply to topic
 
Author
Message

Faust ®

Gender: Unknown

Longevity: 9 years 6 months

Posts: 14946

Reputation: 0 [+] [-]

Faust · Post 24-Nov-2014 01:20

[Quote] 

Если я останусь / If I Stay«Жить, чтобы любить» Страна: США
Жанр: Драма
Год выпуска: 2014
релиз на DVD: 27 ноября 2014, «Двадцатый Век Фокс СНГ»
релиз на Blu-Ray: 27 ноября 2014, «Двадцатый Век Фокс СНГ»
Продолжительность: 01:46:40
Перевод: Профессиональный (дублированный)
Cубтитры: English Espanol Deutsch Italiano Russian Ukrainian
Режиссер: Р.Дж. Катлер / R.J. Cutler
В ролях: Хлоя Грейс Морец, Мирей Инос, Джейми Блэкли, Джошуа Леонард, Лиана Либерато, Стейси Кич, Габриель Роз, Джейкоб Дейвис, Али Милнер, Аиша Хиндс
Описание: Мия — талантливая девушка, влюбленная в классическую музыку, в свою виолончель и рокера Адама. Но после автокатастрофы Мия оказывается в коме. Пока тело девушки лежит в больнице, ее душа должна решить, хочет ли она жить дальше или же лучше отправиться в мир иной вслед за своими родными.

Дополнительные материалы:
-Музыкальный видеоклип"Never Coming Down"
-Удаленные сцены
-Аудиокомментарии Р.Дж. Катлера и Элисон Гринспен
-Музыкальные комментарии Р.Дж. Катлера
-Галерея
-Трейлер
Меню: есть, на русском
Тип релиза: DVD9 R5
Контейнер: DVD-Video
Видео кодек: MPEG2
Аудио кодек: AC3
Видео: PAL 16:9 (720x576) VBR Auto Letterboxed ~ 6052.97 kbps avg
Аудио: English (Dolby AC3, 6 ch, 448 kbps)
Аудио: Castellano (Dolby AC3, 6 ch, 384 kbps)
Аудио: Russian (Dolby AC3, 6 ch, 384 kbps)
Аудио: Deutsch (Dolby AC3, 6 ch, 384 kbps)
Аудио: Italiano (Dolby AC3, 6 ch, 364 kbps)
Аудио: English (Dolby AC3, 2 ch, 192 kbps)

DVDInfo

Title: IF_I_STAY_2014_DVD9_NiP
Size: 7.14 Gb ( 7 489 242,00 KBytes ) - DVD-9
Enabled regions: 1, 2, 3, 4, 5, 6, 7, 8
VTS_01 :
Play Length: 00:00:01+00:00:08+00:00:05+00:00:05+00:00:05+00:00:05+00:00:05+00:00:05+00:00:05+00:00:05+00:00:08+00:00:10+00:00:08+00:00:08+00:00:08+00:00:08+00:00:08+00:00:08+00:00:08+00:00:08+00:00:08+00:00:08+00:00:08+00:00:08+00:00:08+00:00:05+00:00:07+00:00:05+00:00:08
Video: PAL 16:9 (720x576) VBR, Auto Pan&Scan
VTS_02 :
Play Length: 00:00:12
Video: PAL 16:9 (720x576) VBR, Auto Letterboxed
Audio:
English (Dolby AC3, 6 ch)
VTS_03 :
Play Length: 00:02:23
Video: PAL 16:9 (720x576) VBR, Auto Letterboxed
Audio:
English (Dolby AC3, 6 ch)
VTS_04 :
Play Length: 00:00:39+00:00:39+{00:00:01}+00:01:02+00:01:02+00:00:12+00:00:39
Video: PAL 16:9 (720x576) VBR, Auto Letterboxed
Audio:
Not specified (Dolby AC3, 2 ch)
Subtitles:
Not specified
Not specified
Not specified
Not specified
Not specified
VTS_05 :
Play Length: 00:01:59+00:00:00+00:00:01
Video: PAL 16:9 (720x576) VBR, Auto Letterboxed
Audio:
English (Dolby AC3, 6 ch)
Deutsch (Dolby AC3, 2 ch)
Subtitles:
Italiano
Deutsch
Espanol
Russian
Deutsch
VTS_06 :
Play Length: 00:04:08+{00:00:30}+{00:03:39}
Video: PAL 16:9 (720x576) VBR, Auto Letterboxed
Audio:
English (Dolby AC3, 2 ch)
English (Dolby AC3, 2 ch)
Subtitles:
Espanol
Deutsch
Italiano
Russian
Espanol
Deutsch
Italiano
Russian
VTS_07 :
Play Length: 00:00:01+01:42:20+00:48:15+{00:02:20}+{00:01:46}+{00:03:32}+{00:03:16}+{00:02:01}+{00:04:11}+{00:02:31}+{00:01:51}+{00:02:38}+{00:03:37}+{00:01:53}+{00:03:27}+{00:03:24}+{00:02:16}+{00:04:09}+{00:01:20}+{00:01:58}+{00:02:14}
Video: PAL 16:9 (720x576) VBR, Auto Letterboxed
Subtitles:
English
Espanol
Deutsch
Italiano
Russian
Ukrainian
Espanol
Deutsch
Italiano
Russian
Deutsch
Italiano
Deutsch
Italiano
VTS_08 :
Play Length: 00:00:11
Video: PAL 16:9 (720x576) VBR, Auto Letterboxed
Audio:
English (Dolby AC3, 2 ch)
VTS_09 :
Play Length: 00:00:01
Video: PAL 16:9 (720x576) VBR, Auto Letterboxed
VTS_10 :
Play Length: 00:00:13+00:02:04
Video: PAL 16:9 (720x576) VBR, Auto Pan&Scan
Subtitles:
English
VTS_11 :
Play Length: 00:00:14
Video: PAL 16:9 (720x576) VBR, Auto Letterboxed
Audio:
English (Dolby AC3, 2 ch)
VTS_12 :
Play Length: 00:03:23
Video: PAL 16:9 (720x576) VBR, Auto Letterboxed
Audio:
English (Dolby AC3, 2 ch)

MediaInfo

Общее
Полное имя : I:\IF_I_STAY_2014_DVD9_NiP\VIDEO_TS\VTS_07_4.VOB
Формат : MPEG-PS
Размер файла : 1024 Мбайт
Продолжительность : 16 м.
Режим общего битрейта : Переменный
Общий поток : 8586 Кбит/сек
Видео
Идентификатор : 224 (0xE0)
Формат : MPEG Video
Версия формата : Version 2
Профиль формата : Main@Main
Параметр BVOP формата : Да
Параметр матрицы формата : Выборочная
Параметр GOP формата : Variable
Продолжительность : 16 м.
Вид битрейта : Переменный
Битрейт : 6047 Кбит/сек
Максимальный битрейт : 9800 Кбит/сек
Ширина : 720 пикселей
Высота : 576 пикселей
Соотношение сторон : 16:9
Частота кадров : 25,000 кадров/сек
Стандарт вещания : Component
Цветовое пространство : YUV
Субдискретизация насыщенности : 4:2:0
Битовая глубина : 8 бит
Тип развёртки : Прогрессивная
Порядок развёртки : Верхнее поле первое
Метод сжатия : С потерями
Бит/(Пиксели*Кадры) : 0.583
Временной код первого кадра : 01:44:48:10
Оригинал временного кода : Group of pictures header
Размер потока : 721 Мбайт (70%)
Основные цвета : BT.601 PAL
Характеристики трансфера : BT.470 System B, BT.470 System G
Коэффициенты матрицы : BT.601
Аудио #1
Идентификатор : 189 (0xBD)-128 (0x80)
Формат : AC-3
Формат/Информация : Audio Coding 3
Расширение режима : CM (complete main)
Параметр Endianness формата : Big
Режим смешивания : DVD-Video
Продолжительность : 16 м.
Вид битрейта : Постоянный
Битрейт : 448 Кбит/сек
Каналы : 6 каналов
Расположение каналов : Front: L C R, Side: L R, LFE
Частота : 48,0 КГц
Битовая глубина : 16 бит
Метод сжатия : С потерями
Задержка видео : -616 мс.
Размер потока : 53,4 Мбайт (5%)
Аудио #2
Идентификатор : 189 (0xBD)-129 (0x81)
Формат : AC-3
Формат/Информация : Audio Coding 3
Расширение режима : CM (complete main)
Параметр Endianness формата : Big
Режим смешивания : DVD-Video
Продолжительность : 16 м.
Вид битрейта : Постоянный
Битрейт : 384 Кбит/сек
Каналы : 6 каналов
Расположение каналов : Front: L C R, Side: L R, LFE
Частота : 48,0 КГц
Битовая глубина : 16 бит
Метод сжатия : С потерями
Задержка видео : -616 мс.
Размер потока : 45,8 Мбайт (4%)
Аудио #3
Идентификатор : 189 (0xBD)-130 (0x82)
Формат : AC-3
Формат/Информация : Audio Coding 3
Расширение режима : CM (complete main)
Параметр Endianness формата : Big
Режим смешивания : DVD-Video
Продолжительность : 16 м.
Вид битрейта : Постоянный
Битрейт : 384 Кбит/сек
Каналы : 6 каналов
Расположение каналов : Front: L C R, Side: L R, LFE
Частота : 48,0 КГц
Битовая глубина : 16 бит
Метод сжатия : С потерями
Задержка видео : -616 мс.
Размер потока : 45,8 Мбайт (4%)
Аудио #4
Идентификатор : 189 (0xBD)-131 (0x83)
Формат : AC-3
Формат/Информация : Audio Coding 3
Расширение режима : CM (complete main)
Параметр Endianness формата : Big
Режим смешивания : DVD-Video
Продолжительность : 16 м.
Вид битрейта : Постоянный
Битрейт : 384 Кбит/сек
Каналы : 6 каналов
Расположение каналов : Front: L C R, Side: L R, LFE
Частота : 48,0 КГц
Битовая глубина : 16 бит
Метод сжатия : С потерями
Задержка видео : -616 мс.
Размер потока : 45,8 Мбайт (4%)
Аудио #5
Идентификатор : 189 (0xBD)-132 (0x84)
Формат : AC-3
Формат/Информация : Audio Coding 3
Расширение режима : CM (complete main)
Параметр Endianness формата : Big
Режим смешивания : DVD-Video
Продолжительность : 16 м.
Вид битрейта : Постоянный
Битрейт : 384 Кбит/сек
Каналы : 6 каналов
Расположение каналов : Front: L C R, Side: L R, LFE
Частота : 48,0 КГц
Битовая глубина : 16 бит
Метод сжатия : С потерями
Задержка видео : -616 мс.
Размер потока : 45,8 Мбайт (4%)
Аудио #6
Идентификатор : 189 (0xBD)-133 (0x85)
Формат : AC-3
Формат/Информация : Audio Coding 3
Расширение режима : CM (complete main)
Параметр Endianness формата : Big
Режим смешивания : DVD-Video
Продолжительность : 16 м.
Вид битрейта : Постоянный
Битрейт : 192 Кбит/сек
Каналы : 2 канала
Расположение каналов : Front: L R
Частота : 48,0 КГц
Битовая глубина : 16 бит
Метод сжатия : С потерями
Задержка видео : -552 мс.
Размер потока : 22,9 Мбайт (2%)
Аудио #7
Идентификатор : 189 (0xBD)-134 (0x86)
Формат : AC-3
Формат/Информация : Audio Coding 3
Расширение режима : CM (complete main)
Параметр Endianness формата : Big
Режим смешивания : DVD-Video
Продолжительность : 16 м.
Вид битрейта : Постоянный
Битрейт : 192 Кбит/сек
Каналы : 2 канала
Расположение каналов : Front: L R
Частота : 48,0 КГц
Битовая глубина : 16 бит
Метод сжатия : С потерями
Задержка видео : -552 мс.
Размер потока : 22,9 Мбайт (2%)
Текст #1
Идентификатор : 189 (0xBD)-32 (0x20)
Формат : RLE
Формат/Информация : Run-length encoding
Режим смешивания : DVD-Video
Продолжительность : 16 м.
Задержка видео : 560 мс.
Текст #2
Идентификатор : 189 (0xBD)-33 (0x21)
Формат : RLE
Формат/Информация : Run-length encoding
Режим смешивания : DVD-Video
Продолжительность : 16 м.
Задержка видео : 560 мс.
Текст #3
Идентификатор : 189 (0xBD)-34 (0x22)
Формат : RLE
Формат/Информация : Run-length encoding
Режим смешивания : DVD-Video
Продолжительность : 16 м.
Задержка видео : 560 мс.
Текст #4
Идентификатор : 189 (0xBD)-35 (0x23)
Формат : RLE
Формат/Информация : Run-length encoding
Режим смешивания : DVD-Video
Продолжительность : 16 м.
Задержка видео : 560 мс.
Текст #5
Идентификатор : 189 (0xBD)-36 (0x24)
Формат : RLE
Формат/Информация : Run-length encoding
Режим смешивания : DVD-Video
Продолжительность : 16 м.
Задержка видео : 560 мс.
Текст #6
Идентификатор : 189 (0xBD)-37 (0x25)
Формат : RLE
Формат/Информация : Run-length encoding
Режим смешивания : DVD-Video
Продолжительность : 16 м.
Задержка видео : 560 мс.
Текст #7
Идентификатор : 189 (0xBD)-42 (0x2A)
Формат : RLE
Формат/Информация : Run-length encoding
Режим смешивания : DVD-Video
Продолжительность : 16 м.
Задержка видео : 920 мс.
Текст #8
Идентификатор : 189 (0xBD)-43 (0x2B)
Формат : RLE
Формат/Информация : Run-length encoding
Режим смешивания : DVD-Video
Продолжительность : 16 м.
Задержка видео : 920 мс.
Текст #9
Идентификатор : 189 (0xBD)-44 (0x2C)
Формат : RLE
Формат/Информация : Run-length encoding
Режим смешивания : DVD-Video
Продолжительность : 16 м.
Задержка видео : 360 мс.
Текст #10
Идентификатор : 189 (0xBD)-45 (0x2D)
Формат : RLE
Формат/Информация : Run-length encoding
Режим смешивания : DVD-Video
Продолжительность : 16 м.
Задержка видео : 360 мс.
Меню

Скриншоты меню

Скриншоты

[Profile]  [PM] 
Display posts:    
Reply to topic

Current time is: 12-Apr 06:17

All times are UTC + 2



You cannot post new topics in this forum
You cannot reply to topics in this forum
You cannot edit your posts in this forum
You cannot delete your posts in this forum
You cannot vote in polls in this forum
You cannot attach files in this forum
You cannot download files in this forum