Джейсон Х / Jason X (Джеймс Исаак / James Isaac) [2001, США, ужасы, фантастика, DVD5 (Сжатый)] исх. R5, DVO + Original (Eng) + Sub (Rus, Eng)

Reply to topic
 
Author
Message

Faust ®

Gender: Unknown

Longevity: 9 years 6 months

Posts: 14955

Reputation: 0 [+] [-]

Faust · Post 29-Nov-2014 02:10

[Quote] 


Джейсон Х / Jason X
Страна: США
Студия: New Line Cinema, Sean S. Cunningham Production
Жанр: ужасы, фантастика
Год выпуска: 2001
Продолжительность: 01:27:49
Перевод: Профессиональный (двухголосый закадровый)
Cубтитры: русские, английские
Оригинальная аудиодорожка: английский
Режиссер: Джеймс Исаак / James Isaac
В ролях: Кэйн Ходдер (Jason Voorhees / Uber-Jason), Джефф Геддис (Soldier #1), Лекса Дойг (Rowan), Маркус Парило (Sgt. Marcus), Джонатан Поттс (Professor Lowe), Лиза Райдер (Kay-Em 14), Дов Тифенбах (Azrael), Чак Кэмпбелл (Tsunaron), Мелисса Эд (Janessa), Дэвид Кроненберг (Dr. Wimmer), Бойд Бэнкс (Fat Lou)
Описание:
М-да, порой и в Голливуде с головой не дружат люди,
Иногда так начудят, что у нас мозги кипят.
Вот и «Пятнице» досталось – хорошенько, а не малость,
Чумовой денёк настал – Джейсон астронавтом стал!!!
Авторы перемудрили – парня в космос запустили,
Дескать, Вурхису плевать, где сподручней убивать,
Он и на орбите даже маму Кузьки всем покажет,
Будет злее, чем Чужой, кровушку прольет с лихвой...
Кто ж тут в роли Рипли станет, и маньяка устаканит?
italy777)
Похоже, что вместе с правами на Джейсона кинокомпания «New Line Cinema» заодно прикупила у его прежних хозяев и одолевавший их зуд перемен. Ведь креатившики «Парамаунта» не раз безуспешно пытались реконструировать ключевую концепцию «пятничного» цикла. Но, видимо, провальный опыт предшественников ничему не научил новых владельцев Вурхиса. Ибо они отчего-то тоже сочли, что зрителю осточертело смотреть, как маньяк зверствует в окрестностях Хрустального озера, привычно кромсая там молодежь, занимающуюся сексом и употребляющую алкоголь и всякую «дурь». Шон Каннингэм и иже с ним, являвшиеся теперь распорядителями злодея, решили, что надо показать публике что-то иное, заманить её чем-то свеженьким. Но чем?
Взялись думать, прикидывать, перебирать варианты – Джейсон среди снежных сугробов, за полярным кругом; Джейсон в Африке и т.д. Общими потугами родили восемь тем, одна бредовее другой. И все восемь не особо бодрили. Наконец, сценарист Тодд Фармер смекнул, что если уж бредить, то в космических масштабах. И предложил запустить Вурхиса в межгалактическое пространство. Лукавить перед товарищами Тодд не стал. Признался, что его всегда восхищали ленты Ридли Скотта «Чужой» и Джеймса Кэмерона «Чужие», и сюжет очередной истории о Джейсоне можно аккурат построить на основе двух этих замечательных кинохитов.
Мысль Фармера сперва показалась всем довольно дикой. Однако, обстоятельно обмозговав идею, в ней нащупали богатый потенциал, и дали «зеленый свет» на развитие.
Тодд заперся дома, отключил телефон, и за три недели накрапал текст. Главные события, как и в ленте «Чужой» Ридли Скотта, у Фармера разворачивались на борту космолета. С той лишь разницей, что вместо инопланетного чудища тут бесчинствовал убийца в хоккейной маске... Подражая картине Ридли Скотта, Тодд ввел в состав экипажа корабля андроида (у Ридли в роли андроида Эша выступил актер Иэн Холм). Плюс, одного из героев, которого он сам и сыграл, Фармер нарек Далласом (в фильме «Чужой» имя Даллас носит персонаж Тома Скеррита). Ну а из блокбастера Джеймса Кэмерона «Чужие» сюда перекочевала группа бравых, вооруженных до зубов космических десантников, которым предстояло вступить с Вурхисом в смертельную схватку. И никакого спиртного и наркотиков. Только щепотка пикантных моментов для остроты и привлекательности повествования.
Верховодивший подготовительным процессом Шон Каннингэм представил сценарий Тодда Фармера руководству «New Line Cinema», и услышал от начальства положительный ответ. Право выбора режиссера оставалось за Шоном, и Каннингэм доверил кресло постановщика своему приятелю Джеймсу Исааку.
Джеймс Исаак родился 5 июня 1960 года в Сан-Франциско. В кинематограф он попал, можно сказать, случайно. Выучившись на театрального режиссера и продюсера, Джеймс, корпевший в начале восьмидесятых над авторской театральной постановкой, столкнулся с серьезной проблемой финансирования. Чтобы разжиться денежными средствами для зависшего проекта, Исаак, по знакомству (ага, в штатах такое тоже есть), устроился на очень хорошо оплачиваемую должность в FX-компанию Джорджа Лукаса «Industrial Light&Magic», и сразу включился в работу над фильмом «Звездные войны: Эпизод 6 – Возвращение Джедая» (1983)... Приход в кино был для Джеймса вынужденной мерой, и замышлялся как временный шаг. Но возня на FX-кухне у Лукаса настолько увлекла Исаака, что он стал буквально одержим сферой специальных эффектов. И это принесло свои плоды. Тягу Джеймса к данному ремеслу, проявленные им способности и огромное желание совершенствоваться в профессии заметил и оценил Крис Уолас, бывший на «Возвращении Джедая» его непосредственным боссом. И когда через год Крис организовал собственную FX-контору – «Chris Walas Inc.» («CWI»), он тут же пригласил Исаака к себе на службу. Тот, разумеется, с радостью согласился, и отныне о театре не вспоминал.
В «CWI» Джеймсу выпало начать карьеру с создания спецэффектов к лентам «Гремлины» (1984) Джо Данте и «Враг мой» (1985) Вольфганга Петерсена. А в декабре 1985 года, обеспечивая FX-поддержкой картину «Муха», Исаак познакомился и капитально сдружился с Дэвидом Кроненбергом (позже они встретятся на съемочных площадках еще двух лент Дэвида – «Обед нагишом» и «Экзистенция», спецэффекты к которым будут ваять Джеймс Исаак и прочие мастера из «CWI»). В том же 1985-ом у бывшего театрального режиссера Исаака возник живой интерес к кинорежиссуре. И Кроненберг охотно, подробно и терпеливо посвящал своего нового друга в тонкости искусства постановки фильмов, превратившись для Джеймса в неофициального наставника.
А в 1987 году произошла еще одна знаковая встреча. На производстве фильма «Дом 2» Исаак, занимавшийся координацией визуальных эффектов, впервые столкнулся с Шоном Каннингэмом, исполнявшим здесь обязанности продюсера. И, как и с Кроненбергом, крепко с ним сдружился. Затем, спустя год, в 1988-ом, они снова пересеклись на режиссерско-продюсерском творении Шона «Глубоководная звезда 6». А по завершению съемок Каннингэм, знавший о стремлении Джеймса попробовать себя на режиссерском поприще, предложил ему дебютировать в качестве постановщика на беспокойной картине «Дом 3: Шоу ужасов», где Шон числился продюсером. Лента была отснята наполовину. В середине процесса из творческого коллектива выбыл австралийский режиссер Дэвид Блит. И Каннингэму срочно требовалась замена. Джеймс рискнул доделать фильм. И хотя конечный результат восторга у него не вызвал, но первый режиссерский опыт Исаак приобрел.
На протяжении последующих десяти лет Джеймс трудился в киноиндустрии преимущественно как FX-специалист.
Закончив в 1999-ом году вкалывать над спецэффектами у Дэвида Кроненберга в ленте «Экзистенция», Исаак вернулся из Канады в Калифорнию и позвонил другу Шону. Каннингэм сообщил, что подумывает выдать новый сиквел из «пятничного» цикла. Правда, всё пока в зачаточном состоянии. Но, если Джеймс хочет вновь окунуться в режиссуру, то – добро пожаловать в команду... Конечно же, он хотел! Он об этом мечтал!!!
С целью снижения затрат съемки фильма «Джейсон Х» прошли на бюджетных площадках Торонто. Костюм Вурхиса в четвертый и, увы, в последний раз примерил актер и каскадер Кэйн Ходдер... Чтобы придать ленте чуть больше весомости, Джеймс попросил сняться в эпизодической роли своего друга Дэвида Кроненберга. А для достойной реализации визуальных эффектов Исаак затащил в проект своих самых рукастых коллег из «CWI». И все вместе они уделили довольно много внимания изобретению оригинальных способов убийств, благодаря чему картина действительно вышла не только весьма кровавая (28 смертей – максимальный показатель из всех частей «Пятницы»), но и чрезвычайно зрелищная. Удивительно, что в МРАА к такому произведению отнеслись просто с неслыханной лояльностью. В былые времена его бы порезали вдоль и поперек. А сейчас для обретения рейтинга «R» творцам (парадокс!) хватило пожертвовать всего несколькими секундами материала...
Из-за начавшейся в 2000 году внутренней реорганизации в «New Line Cinema», готовая лента пролежала мертвым грузом на студийных полках около полутора лет. А когда добралась до широкой аудитории, зрители восприняли фильм очень неоднозначно. Впрочем, как бы там ни было, а из всех режиссерских работ Исаака «Джейсон Х», пожалуй, наиболее яркая и сильная. После «пятничного» сиквела Джеймс успеет снять еще две картины: «Волки-оборотни» в 2006-ом году и «Охота на кабана» в 2008-ом году. А в 2009-ом его самочувствие резко ухудшится. И несколько лет Исаак, оставив кинематограф, будет вынужден отчаянно сражаться за жизнь. Он вступит в борьбу со смертельной болезнью. В борьбу, выиграть которую, к сожалению, даже сегодня всё еще не представляется возможным.
Джеймс Исаак скончался 6 мая 2012 года от рака крови. Ему шел пятьдесят второй год... С его уходом культовый киносериал понес первую потерю в своем режиссерском цеху. А через семь месяцев, 12 декабря 2012 года, франшиза осиротела повторно: умер Дэнни Стейнманн – постановщик фильма «Пятница 13-е. Часть 5: Новое начало». Остальные режиссеры, причастные к данному циклу, пока, слава Богу, живы. И дай Бог им всем богатырского здоровья...
italy777)

Рейтинг R – Детям до 17 лет обязательно присутствие родителей

«Пятница 13-е». Части I – VIII (1980 – 1989) (MVO) DVD-5 на torrentsland.com.ua



«ПЯТНИЦА 13-Е». ВСЕ ВОСЕМЬ ЧАСТЕЙ
ОТ «ПОЗИТИВ МУЛЬТИМЕДИА» НА


ПЯТНИЦА 13-е. Часть I
ПЯТНИЦА 13-е. Часть II
ПЯТНИЦА 13-е. Часть III
ПЯТНИЦА 13-е. Часть IV
ПЯТНИЦА 13-е. Часть V
ПЯТНИЦА 13-е. Часть VI
ПЯТНИЦА 13-е. Часть VII
ПЯТНИЦА 13-е. Часть VIII

«Пятница 13-е» (2009) (Dub) DVD-9 на torrentsland.com.ua


ПЯТНИЦА 13-е (2009) DVD-9
Доп. информация:

скрытый текст


Отличия от существующего на форуме релиза DVD-5:
ТАМ
1). Материал раздается в образе (ISO). Это удобно далеко не всем.
2). Как сделан релиз, что послужило для него исходником – информация отсутствует. Но, судя по некоторым указанным параметрам (видео – Auto Pan&Scan, перевод – MVO) и дате оформления релиза (2008 год), – исходник там явно иной, нежели здесь (видео – Auto Letterboxed, перевод – DVO /Владимир Вихров + неопознанный женский голос/, дата выхода издания – 2011 год).
ЗДЕСЬ
Предлагаю пользователям качественную альтернативу, сделанную и раздаваемую в соответствии со всеми нынешними требованиями нашего ресурса.
Исходником для релиза послужило R5-издание на DVD-9 от «Warner Home Video», дистрибьютор «Централ Партнершип».
С помощью программы DvdReMakePro 3.6.3 из исходника были удалены: англоязычное меню и дополнительные материалы – трейлер и два документальных видео: рассказ о персонаже Джейсоне Вурхисе и рассказ о создании фильма «Джейсон Х».
В релизе оставлены: заставка «Warner Home Video», предупреждение, русскоязычное меню, фильм «Джейсон Х». Главное меню отредактировано: ненужная кнопка (выход на дополнительные материалы) – отключена, надпись кнопки стерта. Навигация по диску сохранена. Навигация по фильму сохранена. Всё первозданное наполнение фильма – три звуковые дорожки (русская, английская и дорога с комментариями создателей) и два имевшихся потока субтитров (русских и английских) – так же полностью сохранено. Аудио и видео никакой обработке не подвергались. Их качество идентично качеству исходника DVD-9. Иначе говоря, сжатие видео здесь составляет – 0%!!!. Так что предлагаемый релиз – это DVD-5 (сжатый), где «сжатый» – понятие условное, подразумевающее под собой исключительно лишь удаление из исходника лишнего материала, а не какое-либо сжатие оставленного фильма. Но таковы правила нашего трекера, согласно которым подобный релиз тоже должно обозначать как «сжатый».
После вышеописанных манипуляций с исходником, новый проект был записан «ремейком» в папку на жестком диске компьютера. Далее, эти файлы были записаны на диск DVD+R, а работоспособность диска была проверена на софтовом «WMP» и двух «железных» плеерах («Samsung» и «Odeon»).
Техническая информация по релизу:

DVDInfo исходника

Title: Джейсон Х. DVD-9
Size: 6.47 Gb ( 6 781 424,00 KBytes ) - DVD-9
Enabled regions: 1, 2, 3, 4, 5, 6, 7, 8
Audio #1: AC3, 3/2 (L,C,R,SL,SR)+LFE ch, 448 kbps, Delay 0 mSec
Audio #2: AC3, 3/2 (L,C,R,SL,SR)+LFE ch, 448 kbps, Delay 0 mSec
Audio #3: AC3, 2/0 (L,R) ch, 192 kbps, Delay 0 mSec
VTS_01 :
Play Length: 00:00:09+00:00:00
Video: PAL 16:9 (720x576) VBR, Auto Letterboxed
Audio:
Not specified (Dolby AC3, 6 ch)
Not specified (Dolby AC3, 6 ch)
Subtitles:
Not specified
Not specified
VTS_02 :
Play Length: 00:29:55
Video: PAL 16:9 (720x576) VBR, Auto Letterboxed
Audio:
English (Dolby AC3, 2 ch)
Subtitles:
Russian
VTS_03 :
Play Length: 01:27:49
Video: PAL 16:9 (720x576) VBR, Auto Letterboxed
Audio:
Russian (Dolby AC3, 6 ch)
English (Dolby AC3, 6 ch)
English (Dolby AC3, 2 ch)
Subtitles:
Russian
English
VTS_04 :
Play Length: 00:17:32
Video: PAL 16:9 (720x576) VBR, Auto Letterboxed
Audio:
English (Dolby AC3, 2 ch)
Subtitles:
Russian
VTS_05 :
Play Length: 00:01:47
Video: PAL 16:9 (720x576) VBR, Auto Letterboxed
Audio:
English (Dolby AC3, 6 ch)
* Menus Information *
VIDEO_TS Menu
Video:
PAL 16:9 (720x576) VBR
Auto Pan&Scan
Language Unit :
Title Menu
VTS_01 Menu
Video:
PAL 16:9 (720x576) VBR
Auto Pan&Scan
Language Unit :
Root Menu
VTS_02 Menu
Video:
NTSC 4:3 (720x480) VBR
Auto Pan&Scan, Auto Letterboxed
Language Unit :
Root Menu
VTS_03 Menu
Video:
PAL 16:9 (720x576) VBR
Auto Pan&Scan
Audio:
Not specified (Dolby AC3, 6 ch)
Language Unit :
Root Menu
VTS_04 Menu
Video:
NTSC 4:3 (720x480) VBR
Auto Pan&Scan, Auto Letterboxed
Language Unit :
Root Menu
VTS_05 Menu
Video:
NTSC 4:3 (720x480) VBR
Auto Pan&Scan, Auto Letterboxed
Language Unit :
Root Menu

MediaInfo исходника (полная)

Общее
Полное имя : C:\Videos\Джейсон Х. DVD-9\VIDEO_TS\VIDEO_TS.BUP
Формат : DVD Video
Профиль формата : Menu
Размер файла : 16,0 Кбайт
Режим общего битрейта : Переменный
Видео
Идентификатор : 224 (0xE0)
Формат : MPEG Video
Версия формата : Version 2
Вид битрейта : Переменный
Ширина : 720 пикселей
Высота : 576 пикселей
Соотношение сторон : 16:9
Частота кадров : 25,000 кадров/сек
Стандарт вещания : PAL
Метод сжатия : С потерями
Текст
Формат : RLE
Формат/Информация : Run-length encoding
Битовая глубина : 2 бит
Общее
Полное имя : C:\Videos\Джейсон Х. DVD-9\VIDEO_TS\VIDEO_TS.IFO
Формат : DVD Video
Профиль формата : Menu
Размер файла : 16,0 Кбайт
Режим общего битрейта : Переменный
Видео
Идентификатор : 224 (0xE0)
Формат : MPEG Video
Версия формата : Version 2
Вид битрейта : Переменный
Ширина : 720 пикселей
Высота : 576 пикселей
Соотношение сторон : 16:9
Частота кадров : 25,000 кадров/сек
Стандарт вещания : PAL
Метод сжатия : С потерями
Текст
Формат : RLE
Формат/Информация : Run-length encoding
Битовая глубина : 2 бит
Общее
Полное имя : C:\Videos\Джейсон Х. DVD-9\VIDEO_TS\VIDEO_TS.VOB
Формат : MPEG-PS
Размер файла : 346 Кбайт
Продолжительность : 520 мс.
Режим общего битрейта : Переменный
Общий поток : 5451 Кбит/сек
Видео
Идентификатор : 224 (0xE0)
Формат : MPEG Video
Версия формата : Version 2
Профиль формата : Main@Main
Параметр BVOP формата : Нет
Параметр матрицы формата : Выборочная
Продолжительность : 520 мс.
Вид битрейта : Переменный
Максимальный битрейт : 9800 Кбит/сек
Ширина : 720 пикселей
Высота : 576 пикселей
Соотношение сторон : 16:9
Частота кадров : 25,000 кадров/сек
Стандарт вещания : PAL
Цветовое пространство : YUV
Субдискретизация насыщенности : 4:2:0
Битовая глубина : 8 бит
Тип развёртки : Прогрессивная
Порядок развёртки : Верхнее поле первое
Метод сжатия : С потерями
Основные цвета : BT.601 PAL
Характеристики трансфера : BT.470 System B, BT.470 System G
Коэффициенты матрицы : BT.601
Меню
Общее
Полное имя : C:\Videos\Джейсон Х. DVD-9\VIDEO_TS\VTS_01_0.BUP
Формат : DVD Video
Профиль формата : Program
Размер файла : 18,0 Кбайт
Продолжительность : 9 с. 680 мс.
Режим общего битрейта : Переменный
Общий поток : 15,2 Кбит/сек
Видео
Идентификатор : 224 (0xE0)
Формат : MPEG Video
Версия формата : Version 2
Продолжительность : 9 с. 680 мс.
Вид битрейта : Переменный
Ширина : 720 пикселей
Высота : 576 пикселей
Соотношение сторон : 16:9
Частота кадров : 25,000 кадров/сек
Стандарт вещания : PAL
Метод сжатия : С потерями
Аудио #1
Идентификатор : 128 (0x80)
Формат : AC-3
Формат/Информация : Audio Coding 3
Продолжительность : 9 с. 680 мс.
Каналы : 6 каналов
Частота : 48,0 КГц
Метод сжатия : С потерями
Аудио #2
Идентификатор : 129 (0x81)
Формат : AC-3
Формат/Информация : Audio Coding 3
Продолжительность : 9 с. 680 мс.
Каналы : 6 каналов
Частота : 48,0 КГц
Метод сжатия : С потерями
Текст #1
Идентификатор : 32 (0x20)
Формат : RLE
Формат/Информация : Run-length encoding
Битовая глубина : 2 бит
Текст #2
Идентификатор : 32 (0x20)
Формат : RLE
Формат/Информация : Run-length encoding
Битовая глубина : 2 бит
Меню #1
Продолжительность : 9 с. 680 мс.
00:00:00.000 : Chapter 1
List (Audio) : 0 / 1
List (Subtitles 4/3) : 0 / 0
List (Subtitles Wide) : 0 / 0
List (Subtitles Letterbox) : 0 / 0
List (Subtitles Pan&Scan) : 0 / 0
Меню #2
Продолжительность : 480 мс.
00:00:00.000 : Chapter 1
Меню #3
Общее
Полное имя : C:\Videos\Джейсон Х. DVD-9\VIDEO_TS\VTS_01_0.IFO
Формат : DVD Video
Профиль формата : Program
Размер файла : 18,0 Кбайт
Продолжительность : 9 с. 680 мс.
Режим общего битрейта : Переменный
Общий поток : 15,2 Кбит/сек
Видео
Идентификатор : 224 (0xE0)
Формат : MPEG Video
Версия формата : Version 2
Продолжительность : 9 с. 680 мс.
Вид битрейта : Переменный
Ширина : 720 пикселей
Высота : 576 пикселей
Соотношение сторон : 16:9
Частота кадров : 25,000 кадров/сек
Стандарт вещания : PAL
Метод сжатия : С потерями
Аудио #1
Идентификатор : 128 (0x80)
Формат : AC-3
Формат/Информация : Audio Coding 3
Продолжительность : 9 с. 680 мс.
Каналы : 6 каналов
Частота : 48,0 КГц
Метод сжатия : С потерями
Аудио #2
Идентификатор : 129 (0x81)
Формат : AC-3
Формат/Информация : Audio Coding 3
Продолжительность : 9 с. 680 мс.
Каналы : 6 каналов
Частота : 48,0 КГц
Метод сжатия : С потерями
Текст #1
Идентификатор : 32 (0x20)
Формат : RLE
Формат/Информация : Run-length encoding
Битовая глубина : 2 бит
Текст #2
Идентификатор : 32 (0x20)
Формат : RLE
Формат/Информация : Run-length encoding
Битовая глубина : 2 бит
Меню #1
Продолжительность : 9 с. 680 мс.
00:00:00.000 : Chapter 1
List (Audio) : 0 / 1
List (Subtitles 4/3) : 0 / 0
List (Subtitles Wide) : 0 / 0
List (Subtitles Letterbox) : 0 / 0
List (Subtitles Pan&Scan) : 0 / 0
Меню #2
Продолжительность : 480 мс.
00:00:00.000 : Chapter 1
Меню #3
Общее
Полное имя : C:\Videos\Джейсон Х. DVD-9\VIDEO_TS\VTS_01_0.VOB
Формат : MPEG-PS
Размер файла : 10,0 Кбайт
Продолжительность : 40 мс.
Режим общего битрейта : Переменный
Общий поток : 2048 Кбит/сек
Видео
Идентификатор : 224 (0xE0)
Формат : MPEG Video
Версия формата : Version 2
Профиль формата : Main@Main
Параметр BVOP формата : Нет
Параметр матрицы формата : Выборочная
Продолжительность : 40 мс.
Вид битрейта : Переменный
Максимальный битрейт : 9800 Кбит/сек
Ширина : 720 пикселей
Высота : 576 пикселей
Соотношение сторон : 16:9
Частота кадров : 25,000 кадров/сек
Стандарт вещания : PAL
Цветовое пространство : YUV
Субдискретизация насыщенности : 4:2:0
Битовая глубина : 8 бит
Тип развёртки : Прогрессивная
Порядок развёртки : Верхнее поле первое
Метод сжатия : С потерями
Основные цвета : BT.601 PAL
Характеристики трансфера : BT.470 System B, BT.470 System G
Коэффициенты матрицы : BT.601
Меню
Общее
Полное имя : C:\Videos\Джейсон Х. DVD-9\VIDEO_TS\VTS_01_1.VOB
Формат : MPEG-PS
Размер файла : 7,32 Мбайт
Продолжительность : 9 с. 664 мс.
Режим общего битрейта : Переменный
Общий поток : 6358 Кбит/сек
Видео
Идентификатор : 224 (0xE0)
Формат : MPEG Video
Версия формата : Version 2
Профиль формата : Main@Main
Параметр BVOP формата : Да
Параметр матрицы формата : Выборочная
Параметр GOP формата : M=3, N=15
Продолжительность : 1 с. 40 мс.
Вид битрейта : Переменный
Битрейт : 5463 Кбит/сек
Максимальный битрейт : 7500 Кбит/сек
Ширина : 720 пикселей
Высота : 576 пикселей
Соотношение сторон : 16:9
Частота кадров : 25,000 кадров/сек
Стандарт вещания : PAL
Цветовое пространство : YUV
Субдискретизация насыщенности : 4:2:0
Битовая глубина : 8 бит
Тип развёртки : Прогрессивная
Порядок развёртки : Верхнее поле первое
Метод сжатия : С потерями
Бит/(Пиксели*Кадры) : 0.527
Размер потока : 694 Кбайт (9%)
Аудио #1
Идентификатор : 189 (0xBD)-128 (0x80)
Формат : AC-3
Формат/Информация : Audio Coding 3
Расширение режима : CM (complete main)
Параметр Endianness формата : Big
Режим смешивания : DVD-Video
Продолжительность : 9 с. 664 мс.
Вид битрейта : Постоянный
Битрейт : 384 Кбит/сек
Каналы : 6 каналов
Расположение каналов : Front: L C R, Side: L R, LFE
Частота : 48,0 КГц
Битовая глубина : 16 бит
Метод сжатия : С потерями
Задержка видео : -88 мс.
Размер потока : 453 Кбайт (6%)
Аудио #2
Идентификатор : 189 (0xBD)-129 (0x81)
Формат : AC-3
Формат/Информация : Audio Coding 3
Расширение режима : CM (complete main)
Параметр Endianness формата : Big
Режим смешивания : DVD-Video
Продолжительность : 9 с. 664 мс.
Вид битрейта : Постоянный
Битрейт : 384 Кбит/сек
Каналы : 6 каналов
Расположение каналов : Front: L C R, Side: L R, LFE
Частота : 48,0 КГц
Битовая глубина : 16 бит
Метод сжатия : С потерями
Задержка видео : -88 мс.
Размер потока : 453 Кбайт (6%)
Меню
Общее
Полное имя : C:\Videos\Джейсон Х. DVD-9\VIDEO_TS\VTS_02_0.BUP
Формат : DVD Video
Профиль формата : Program
Размер файла : 30,0 Кбайт
Продолжительность : 29 м.
Режим общего битрейта : Переменный
Общий поток : 137 бит/сек
Видео
Идентификатор : 224 (0xE0)
Формат : MPEG Video
Версия формата : Version 2
Продолжительность : 29 м.
Вид битрейта : Переменный
Ширина : 720 пикселей
Высота : 576 пикселей
Соотношение сторон : 16:9
Частота кадров : 25,000 кадров/сек
Стандарт вещания : PAL
Метод сжатия : С потерями
Аудио
Идентификатор : 128 (0x80)
Формат : AC-3
Формат/Информация : Audio Coding 3
Продолжительность : 29 м.
Каналы : 2 канала
Частота : 48,0 КГц
Метод сжатия : С потерями
Язык : English
Текст
Идентификатор : 32 (0x20)
Формат : RLE
Формат/Информация : Run-length encoding
Битовая глубина : 2 бит
Язык : Russian
Меню
Продолжительность : 29 м.
00:00:00.000 : Chapter 1
00:29:55.000 : Chapter 2
List (Audio) : 0
List (Subtitles 4/3) : 0
List (Subtitles Wide) : 0
List (Subtitles Letterbox) : 0
List (Subtitles Pan&Scan) : 0
Общее
Полное имя : C:\Videos\Джейсон Х. DVD-9\VIDEO_TS\VTS_02_0.IFO
Формат : DVD Video
Профиль формата : Program
Размер файла : 30,0 Кбайт
Продолжительность : 29 м.
Режим общего битрейта : Переменный
Общий поток : 137 бит/сек
Видео
Идентификатор : 224 (0xE0)
Формат : MPEG Video
Версия формата : Version 2
Продолжительность : 29 м.
Вид битрейта : Переменный
Ширина : 720 пикселей
Высота : 576 пикселей
Соотношение сторон : 16:9
Частота кадров : 25,000 кадров/сек
Стандарт вещания : PAL
Метод сжатия : С потерями
Аудио
Идентификатор : 128 (0x80)
Формат : AC-3
Формат/Информация : Audio Coding 3
Продолжительность : 29 м.
Каналы : 2 канала
Частота : 48,0 КГц
Метод сжатия : С потерями
Язык : English
Текст
Идентификатор : 32 (0x20)
Формат : RLE
Формат/Информация : Run-length encoding
Битовая глубина : 2 бит
Язык : Russian
Меню
Продолжительность : 29 м.
00:00:00.000 : Chapter 1
00:29:55.000 : Chapter 2
List (Audio) : 0
List (Subtitles 4/3) : 0
List (Subtitles Wide) : 0
List (Subtitles Letterbox) : 0
List (Subtitles Pan&Scan) : 0
Общее
Полное имя : C:\Videos\Джейсон Х. DVD-9\VIDEO_TS\VTS_02_1.VOB
Формат : MPEG-PS
Размер файла : 1024 Мбайт
Продолжительность : 25 м.
Режим общего битрейта : Переменный
Общий поток : 5685 Кбит/сек
Видео
Идентификатор : 224 (0xE0)
Формат : MPEG Video
Версия формата : Version 2
Профиль формата : Main@Main
Параметр BVOP формата : Да
Параметр матрицы формата : Выборочная
Параметр GOP формата : M=3, N=15
Продолжительность : 25 м.
Вид битрейта : Переменный
Битрейт : 5379 Кбит/сек
Максимальный битрейт : 7500 Кбит/сек
Ширина : 720 пикселей
Высота : 576 пикселей
Соотношение сторон : 16:9
Частота кадров : 25,000 кадров/сек
Стандарт вещания : PAL
Цветовое пространство : YUV
Субдискретизация насыщенности : 4:2:0
Битовая глубина : 8 бит
Тип развёртки : Чересстрочная
Порядок развёртки : Верхнее поле первое
Метод сжатия : С потерями
Бит/(Пиксели*Кадры) : 0.519
Размер потока : 969 Мбайт (95%)
Аудио
Идентификатор : 189 (0xBD)-128 (0x80)
Формат : AC-3
Формат/Информация : Audio Coding 3
Расширение режима : CM (complete main)
Параметр Endianness формата : Big
Режим смешивания : DVD-Video
Продолжительность : 25 м.
Вид битрейта : Постоянный
Битрейт : 192 Кбит/сек
Каналы : 2 канала
Расположение каналов : Front: L R
Частота : 48,0 КГц
Битовая глубина : 16 бит
Метод сжатия : С потерями
Задержка видео : -80 мс.
Размер потока : 34,6 Мбайт (3%)
Текст
Идентификатор : 189 (0xBD)-32 (0x20)
Формат : RLE
Формат/Информация : Run-length encoding
Режим смешивания : DVD-Video
Продолжительность : 25 м.
Задержка видео : 7 с. 480 мс.
Меню
Общее
Полное имя : C:\Videos\Джейсон Х. DVD-9\VIDEO_TS\VTS_02_2.VOB
Формат : MPEG-PS
Размер файла : 173 Мбайт
Продолжительность : 4 м. 43 с.
Режим общего битрейта : Переменный
Общий поток : 5108 Кбит/сек
Видео
Идентификатор : 224 (0xE0)
Формат : MPEG Video
Версия формата : Version 2
Профиль формата : Main@Main
Параметр BVOP формата : Да
Параметр матрицы формата : Выборочная
Параметр GOP формата : M=3, N=15
Продолжительность : 4 м. 43 с.
Вид битрейта : Переменный
Битрейт : 4815 Кбит/сек
Максимальный битрейт : 7500 Кбит/сек
Ширина : 720 пикселей
Высота : 576 пикселей
Соотношение сторон : 16:9
Частота кадров : 25,000 кадров/сек
Стандарт вещания : PAL
Цветовое пространство : YUV
Субдискретизация насыщенности : 4:2:0
Битовая глубина : 8 бит
Тип развёртки : Чересстрочная
Порядок развёртки : Верхнее поле первое
Метод сжатия : С потерями
Бит/(Пиксели*Кадры) : 0.464
Размер потока : 163 Мбайт (94%)
Аудио
Идентификатор : 189 (0xBD)-128 (0x80)
Формат : AC-3
Формат/Информация : Audio Coding 3
Расширение режима : CM (complete main)
Параметр Endianness формата : Big
Режим смешивания : DVD-Video
Продолжительность : 4 м. 43 с.
Вид битрейта : Постоянный
Битрейт : 192 Кбит/сек
Каналы : 2 канала
Расположение каналов : Front: L R
Частота : 48,0 КГц
Битовая глубина : 16 бит
Метод сжатия : С потерями
Задержка видео : -376 мс.
Размер потока : 6,50 Мбайт (4%)
Текст
Идентификатор : 189 (0xBD)-32 (0x20)
Формат : RLE
Формат/Информация : Run-length encoding
Режим смешивания : DVD-Video
Задержка видео : 960 мс.
Меню
Общее
Полное имя : C:\Videos\Джейсон Х. DVD-9\VIDEO_TS\VTS_03_0.BUP
Формат : DVD Video
Профиль формата : Program
Размер файла : 68,0 Кбайт
Продолжительность : 1 ч. 27 м.
Режим общего битрейта : Переменный
Общий поток : 106 бит/сек
Видео
Идентификатор : 224 (0xE0)
Формат : MPEG Video
Версия формата : Version 2
Продолжительность : 1 ч. 27 м.
Вид битрейта : Переменный
Ширина : 720 пикселей
Высота : 576 пикселей
Соотношение сторон : 16:9
Частота кадров : 25,000 кадров/сек
Стандарт вещания : PAL
Метод сжатия : С потерями
Аудио #1
Идентификатор : 128 (0x80)
Формат : AC-3
Формат/Информация : Audio Coding 3
Продолжительность : 1 ч. 27 м.
Каналы : 6 каналов
Частота : 48,0 КГц
Метод сжатия : С потерями
Язык : Russian
Аудио #2
Идентификатор : 129 (0x81)
Формат : AC-3
Формат/Информация : Audio Coding 3
Продолжительность : 1 ч. 27 м.
Каналы : 6 каналов
Частота : 48,0 КГц
Метод сжатия : С потерями
Язык : English
Аудио #3
Идентификатор : 130 (0x82)
Формат : AC-3
Формат/Информация : Audio Coding 3
Продолжительность : 1 ч. 27 м.
Каналы : 2 канала
Частота : 48,0 КГц
Метод сжатия : С потерями
Язык : English
Язык, дополнительно : Director's comments
Текст #1
Идентификатор : 32 (0x20)
Формат : RLE
Формат/Информация : Run-length encoding
Битовая глубина : 2 бит
Язык : Russian
Текст #2
Идентификатор : 33 (0x21)
Формат : RLE
Формат/Информация : Run-length encoding
Битовая глубина : 2 бит
Язык : English
Меню
Продолжительность : 1 ч. 27 м.
00:00:00.000 : Chapter 1
00:02:57.360 : Chapter 2
00:06:53.000 : Chapter 3
00:09:12.800 : Chapter 4
00:13:26.520 : Chapter 5
00:16:51.400 : Chapter 6
00:22:27.040 : Chapter 7
00:24:55.080 : Chapter 8
00:28:42.880 : Chapter 9
00:29:54.360 : Chapter 10
00:33:23.840 : Chapter 11
00:37:17.480 : Chapter 12
00:39:36.240 : Chapter 13
00:47:55.960 : Chapter 14
00:51:53.040 : Chapter 15
00:56:25.520 : Chapter 16
01:00:36.800 : Chapter 17
01:02:08.800 : Chapter 18
01:06:01.600 : Chapter 19
01:09:00.000 : Chapter 20
01:12:08.480 : Chapter 21
01:15:15.200 : Chapter 22
01:17:44.480 : Chapter 23
01:20:20.520 : Chapter 24
01:22:52.280 : Chapter 25
01:23:51.000 : Chapter 26
01:27:49.000 : Chapter 27
List (Audio) : 0 / 1 / 2
List (Subtitles 4/3) : 0 / 0
List (Subtitles Wide) : 0 / 1
List (Subtitles Letterbox) : 0 / 1
List (Subtitles Pan&Scan) : 0 / 0
Общее
Полное имя : C:\Videos\Джейсон Х. DVD-9\VIDEO_TS\VTS_03_0.IFO
Формат : DVD Video
Профиль формата : Program
Размер файла : 68,0 Кбайт
Продолжительность : 1 ч. 27 м.
Режим общего битрейта : Переменный
Общий поток : 106 бит/сек
Видео
Идентификатор : 224 (0xE0)
Формат : MPEG Video
Версия формата : Version 2
Продолжительность : 1 ч. 27 м.
Вид битрейта : Переменный
Ширина : 720 пикселей
Высота : 576 пикселей
Соотношение сторон : 16:9
Частота кадров : 25,000 кадров/сек
Стандарт вещания : PAL
Метод сжатия : С потерями
Аудио #1
Идентификатор : 128 (0x80)
Формат : AC-3
Формат/Информация : Audio Coding 3
Продолжительность : 1 ч. 27 м.
Каналы : 6 каналов
Частота : 48,0 КГц
Метод сжатия : С потерями
Язык : Russian
Аудио #2
Идентификатор : 129 (0x81)
Формат : AC-3
Формат/Информация : Audio Coding 3
Продолжительность : 1 ч. 27 м.
Каналы : 6 каналов
Частота : 48,0 КГц
Метод сжатия : С потерями
Язык : English
Аудио #3
Идентификатор : 130 (0x82)
Формат : AC-3
Формат/Информация : Audio Coding 3
Продолжительность : 1 ч. 27 м.
Каналы : 2 канала
Частота : 48,0 КГц
Метод сжатия : С потерями
Язык : English
Язык, дополнительно : Director's comments
Текст #1
Идентификатор : 32 (0x20)
Формат : RLE
Формат/Информация : Run-length encoding
Битовая глубина : 2 бит
Язык : Russian
Текст #2
Идентификатор : 33 (0x21)
Формат : RLE
Формат/Информация : Run-length encoding
Битовая глубина : 2 бит
Язык : English
Меню
Продолжительность : 1 ч. 27 м.
00:00:00.000 : Chapter 1
00:02:57.360 : Chapter 2
00:06:53.000 : Chapter 3
00:09:12.800 : Chapter 4
00:13:26.520 : Chapter 5
00:16:51.400 : Chapter 6
00:22:27.040 : Chapter 7
00:24:55.080 : Chapter 8
00:28:42.880 : Chapter 9
00:29:54.360 : Chapter 10
00:33:23.840 : Chapter 11
00:37:17.480 : Chapter 12
00:39:36.240 : Chapter 13
00:47:55.960 : Chapter 14
00:51:53.040 : Chapter 15
00:56:25.520 : Chapter 16
01:00:36.800 : Chapter 17
01:02:08.800 : Chapter 18
01:06:01.600 : Chapter 19
01:09:00.000 : Chapter 20
01:12:08.480 : Chapter 21
01:15:15.200 : Chapter 22
01:17:44.480 : Chapter 23
01:20:20.520 : Chapter 24
01:22:52.280 : Chapter 25
01:23:51.000 : Chapter 26
01:27:49.000 : Chapter 27
List (Audio) : 0 / 1 / 2
List (Subtitles 4/3) : 0 / 0
List (Subtitles Wide) : 0 / 1
List (Subtitles Letterbox) : 0 / 1
List (Subtitles Pan&Scan) : 0 / 0
Общее
Полное имя : C:\Videos\Джейсон Х. DVD-9\VIDEO_TS\VTS_03_0.VOB
Формат : MPEG-PS
Размер файла : 188 Мбайт
Продолжительность : 4 с. 0 мс.
Режим общего битрейта : Переменный
Общий поток : 393 Мбит/сек
Видео
Идентификатор : 224 (0xE0)
Формат : MPEG Video
Версия формата : Version 2
Профиль формата : Main@Main
Параметр BVOP формата : Да
Параметр матрицы формата : Выборочная
Параметр GOP формата : Variable
Продолжительность : 3 с. 936 мс.
Вид битрейта : Переменный
Битрейт : 385 Мбит/сек
Максимальный битрейт : 7500 Кбит/сек
Ширина : 720 пикселей
Высота : 576 пикселей
Соотношение сторон : 16:9
Частота кадров : 25,000 кадров/сек
Стандарт вещания : PAL
Цветовое пространство : YUV
Субдискретизация насыщенности : 4:2:0
Битовая глубина : 8 бит
Тип развёртки : Чересстрочная
Порядок развёртки : Верхнее поле первое
Метод сжатия : С потерями
Бит/(Пиксели*Кадры) : 37.143
Размер потока : 180 Мбайт (96%)
Основные цвета : BT.601 PAL
Характеристики трансфера : BT.470 System B, BT.470 System G
Коэффициенты матрицы : BT.601
Аудио
Идентификатор : 189 (0xBD)-128 (0x80)
Формат : AC-3
Формат/Информация : Audio Coding 3
Расширение режима : CM (complete main)
Параметр Endianness формата : Big
Режим смешивания : DVD-Video
Продолжительность : 4 с. 0 мс.
Вид битрейта : Постоянный
Битрейт : 448 Кбит/сек
Каналы : 6 каналов
Расположение каналов : Front: L C R, Side: L R, LFE
Частота : 48,0 КГц
Битовая глубина : 16 бит
Метод сжатия : С потерями
Задержка видео : -80 мс.
Размер потока : 219 Кбайт (0%)
Меню
Общее
Полное имя : C:\Videos\Джейсон Х. DVD-9\VIDEO_TS\VTS_03_1.VOB
Формат : MPEG-PS
Размер файла : 1024 Мбайт
Продолжительность : 19 м.
Режим общего битрейта : Переменный
Общий поток : 7258 Кбит/сек
Видео
Идентификатор : 224 (0xE0)
Формат : MPEG Video
Версия формата : Version 2
Профиль формата : Main@Main
Параметр BVOP формата : Да
Параметр матрицы формата : Выборочная
Параметр GOP формата : M=3, N=15
Продолжительность : 19 м.
Вид битрейта : Переменный
Битрейт : 6026 Кбит/сек
Максимальный битрейт : 7500 Кбит/сек
Ширина : 720 пикселей
Высота : 576 пикселей
Соотношение сторон : 16:9
Частота кадров : 25,000 кадров/сек
Стандарт вещания : PAL
Цветовое пространство : YUV
Субдискретизация насыщенности : 4:2:0
Битовая глубина : 8 бит
Тип развёртки : Чересстрочная
Порядок развёртки : Верхнее поле первое
Метод сжатия : С потерями
Бит/(Пиксели*Кадры) : 0.581
Размер потока : 850 Мбайт (83%)
Аудио #1
Идентификатор : 189 (0xBD)-128 (0x80)
Формат : AC-3
Формат/Информация : Audio Coding 3
Расширение режима : CM (complete main)
Параметр Endianness формата : Big
Режим смешивания : DVD-Video
Продолжительность : 19 м.
Вид битрейта : Постоянный
Битрейт : 448 Кбит/сек
Каналы : 6 каналов
Расположение каналов : Front: L C R, Side: L R, LFE
Частота : 48,0 КГц
Битовая глубина : 16 бит
Метод сжатия : С потерями
Задержка видео : -80 мс.
Размер потока : 63,2 Мбайт (6%)
Аудио #2
Идентификатор : 189 (0xBD)-129 (0x81)
Формат : AC-3
Формат/Информация : Audio Coding 3
Расширение режима : CM (complete main)
Параметр Endianness формата : Big
Режим смешивания : DVD-Video
Продолжительность : 19 м.
Вид битрейта : Постоянный
Битрейт : 448 Кбит/сек
Каналы : 6 каналов
Расположение каналов : Front: L C R, Side: L R, LFE
Частота : 48,0 КГц
Битовая глубина : 16 бит
Метод сжатия : С потерями
Задержка видео : -80 мс.
Размер потока : 63,2 Мбайт (6%)
Аудио #3
Идентификатор : 189 (0xBD)-130 (0x82)
Формат : AC-3
Формат/Информация : Audio Coding 3
Расширение режима : CM (complete main)
Параметр Endianness формата : Big
Режим смешивания : DVD-Video
Продолжительность : 19 м.
Вид битрейта : Постоянный
Битрейт : 192 Кбит/сек
Каналы : 2 канала
Расположение каналов : Front: L R
Частота : 48,0 КГц
Битовая глубина : 16 бит
Метод сжатия : С потерями
Задержка видео : -80 мс.
Размер потока : 27,1 Мбайт (3%)
Меню
Общее
Полное имя : C:\Videos\Джейсон Х. DVD-9\VIDEO_TS\VTS_03_2.VOB
Формат : MPEG-PS
Размер файла : 1024 Мбайт
Продолжительность : 19 м.
Режим общего битрейта : Переменный
Общий поток : 7169 Кбит/сек
Видео
Идентификатор : 224 (0xE0)
Формат : MPEG Video
Версия формата : Version 2
Профиль формата : Main@Main
Параметр BVOP формата : Да
Параметр матрицы формата : Выборочная
Параметр GOP формата : M=3, N=15
Продолжительность : 19 м.
Вид битрейта : Переменный
Битрейт : 5939 Кбит/сек
Максимальный битрейт : 7500 Кбит/сек
Ширина : 720 пикселей
Высота : 576 пикселей
Соотношение сторон : 16:9
Частота кадров : 25,000 кадров/сек
Стандарт вещания : PAL
Цветовое пространство : YUV
Субдискретизация насыщенности : 4:2:0
Битовая глубина : 8 бит
Тип развёртки : Чересстрочная
Порядок развёртки : Верхнее поле первое
Метод сжатия : С потерями
Бит/(Пиксели*Кадры) : 0.573
Размер потока : 848 Мбайт (83%)
Аудио #1
Идентификатор : 189 (0xBD)-128 (0x80)
Формат : AC-3
Формат/Информация : Audio Coding 3
Расширение режима : CM (complete main)
Параметр Endianness формата : Big
Режим смешивания : DVD-Video
Продолжительность : 19 м.
Вид битрейта : Постоянный
Битрейт : 448 Кбит/сек
Каналы : 6 каналов
Расположение каналов : Front: L C R, Side: L R, LFE
Частота : 48,0 КГц
Битовая глубина : 16 бит
Метод сжатия : С потерями
Задержка видео : -144 мс.
Размер потока : 64,0 Мбайт (6%)
Аудио #2
Идентификатор : 189 (0xBD)-129 (0x81)
Формат : AC-3
Формат/Информация : Audio Coding 3
Расширение режима : CM (complete main)
Параметр Endianness формата : Big
Режим смешивания : DVD-Video
Продолжительность : 19 м.
Вид битрейта : Постоянный
Битрейт : 448 Кбит/сек
Каналы : 6 каналов
Расположение каналов : Front: L C R, Side: L R, LFE
Частота : 48,0 КГц
Битовая глубина : 16 бит
Метод сжатия : С потерями
Задержка видео : -144 мс.
Размер потока : 64,0 Мбайт (6%)
Аудио #3
Идентификатор : 189 (0xBD)-130 (0x82)
Формат : AC-3
Формат/Информация : Audio Coding 3
Расширение режима : CM (complete main)
Параметр Endianness формата : Big
Режим смешивания : DVD-Video
Продолжительность : 19 м.
Вид битрейта : Постоянный
Битрейт : 192 Кбит/сек
Каналы : 2 канала
Расположение каналов : Front: L R
Частота : 48,0 КГц
Битовая глубина : 16 бит
Метод сжатия : С потерями
Задержка видео : -112 мс.
Размер потока : 27,4 Мбайт (3%)
Меню
Общее
Полное имя : C:\Videos\Джейсон Х. DVD-9\VIDEO_TS\VTS_03_3.VOB
Формат : MPEG-PS
Размер файла : 1024 Мбайт
Продолжительность : 21 м.
Режим общего битрейта : Переменный
Общий поток : 6710 Кбит/сек
Видео
Идентификатор : 224 (0xE0)
Формат : MPEG Video
Версия формата : Version 2
Профиль формата : Main@Main
Параметр BVOP формата : Да
Параметр матрицы формата : Выборочная
Параметр GOP формата : M=3, N=15
Продолжительность : 21 м.
Вид битрейта : Переменный
Битрейт : 5489 Кбит/сек
Максимальный битрейт : 7500 Кбит/сек
Ширина : 720 пикселей
Высота : 576 пикселей
Соотношение сторон : 16:9
Частота кадров : 25,000 кадров/сек
Стандарт вещания : PAL
Цветовое пространство : YUV
Субдискретизация насыщенности : 4:2:0
Битовая глубина : 8 бит
Тип развёртки : Чересстрочная
Порядок развёртки : Верхнее поле первое
Метод сжатия : С потерями
Бит/(Пиксели*Кадры) : 0.529
Размер потока : 837 Мбайт (82%)
Аудио #1
Идентификатор : 189 (0xBD)-128 (0x80)
Формат : AC-3
Формат/Информация : Audio Coding 3
Расширение режима : CM (complete main)
Параметр Endianness формата : Big
Режим смешивания : DVD-Video
Продолжительность : 21 м.
Вид битрейта : Постоянный
Битрейт : 448 Кбит/сек
Каналы : 6 каналов
Расположение каналов : Front: L C R, Side: L R, LFE
Частота : 48,0 КГц
Битовая глубина : 16 бит
Метод сжатия : С потерями
Задержка видео : -640 мс.
Размер потока : 68,4 Мбайт (7%)
Аудио #2
Идентификатор : 189 (0xBD)-129 (0x81)
Формат : AC-3
Формат/Информация : Audio Coding 3
Расширение режима : CM (complete main)
Параметр Endianness формата : Big
Режим смешивания : DVD-Video
Продолжительность : 21 м.
Вид битрейта : Постоянный
Битрейт : 448 Кбит/сек
Каналы : 6 каналов
Расположение каналов : Front: L C R, Side: L R, LFE
Частота : 48,0 КГц
Битовая глубина : 16 бит
Метод сжатия : С потерями
Задержка видео : -640 мс.
Размер потока : 68,4 Мбайт (7%)
Аудио #3
Идентификатор : 189 (0xBD)-130 (0x82)
Формат : AC-3
Формат/Информация : Audio Coding 3
Расширение режима : CM (complete main)
Параметр Endianness формата : Big
Режим смешивания : DVD-Video
Продолжительность : 21 м.
Вид битрейта : Постоянный
Битрейт : 192 Кбит/сек
Каналы : 2 канала
Расположение каналов : Front: L R
Частота : 48,0 КГц
Битовая глубина : 16 бит
Метод сжатия : С потерями
Задержка видео : -608 мс.
Размер потока : 29,3 Мбайт (3%)
Меню
Общее
Полное имя : C:\Videos\Джейсон Х. DVD-9\VIDEO_TS\VTS_03_4.VOB
Формат : MPEG-PS
Размер файла : 1024 Мбайт
Продолжительность : 18 м.
Режим общего битрейта : Переменный
Общий поток : 7597 Кбит/сек
Видео
Идентификатор : 224 (0xE0)
Формат : MPEG Video
Версия формата : Version 2
Профиль формата : Main@Main
Параметр BVOP формата : Да
Параметр матрицы формата : Выборочная
Параметр GOP формата : M=3, N=15
Продолжительность : 18 м.
Вид битрейта : Переменный
Битрейт : 6358 Кбит/сек
Максимальный битрейт : 7500 Кбит/сек
Ширина : 720 пикселей
Высота : 576 пикселей
Соотношение сторон : 16:9
Частота кадров : 25,000 кадров/сек
Стандарт вещания : PAL
Цветовое пространство : YUV
Субдискретизация насыщенности : 4:2:0
Битовая глубина : 8 бит
Тип развёртки : Чересстрочная
Порядок развёртки : Верхнее поле первое
Метод сжатия : С потерями
Бит/(Пиксели*Кадры) : 0.613
Размер потока : 857 Мбайт (84%)
Аудио #1
Идентификатор : 189 (0xBD)-128 (0x80)
Формат : AC-3
Формат/Информация : Audio Coding 3
Расширение режима : CM (complete main)
Параметр Endianness формата : Big
Режим смешивания : DVD-Video
Продолжительность : 18 м.
Вид битрейта : Постоянный
Битрейт : 448 Кбит/сек
Каналы : 6 каналов
Расположение каналов : Front: L C R, Side: L R, LFE
Частота : 48,0 КГц
Битовая глубина : 16 бит
Метод сжатия : С потерями
Задержка видео : -240 мс.
Размер потока : 60,4 Мбайт (6%)
Аудио #2
Идентификатор : 189 (0xBD)-129 (0x81)
Формат : AC-3
Формат/Информация : Audio Coding 3
Расширение режима : CM (complete main)
Параметр Endianness формата : Big
Режим смешивания : DVD-Video
Продолжительность : 18 м.
Вид битрейта : Постоянный
Битрейт : 448 Кбит/сек
Каналы : 6 каналов
Расположение каналов : Front: L C R, Side: L R, LFE
Частота : 48,0 КГц
Битовая глубина : 16 бит
Метод сжатия : С потерями
Задержка видео : -240 мс.
Размер потока : 60,4 Мбайт (6%)
Аудио #3
Идентификатор : 189 (0xBD)-130 (0x82)
Формат : AC-3
Формат/Информация : Audio Coding 3
Расширение режима : CM (complete main)
Параметр Endianness формата : Big
Режим смешивания : DVD-Video
Продолжительность : 18 м.
Вид битрейта : Постоянный
Битрейт : 192 Кбит/сек
Каналы : 2 канала
Расположение каналов : Front: L R
Частота : 48,0 КГц
Битовая глубина : 16 бит
Метод сжатия : С потерями
Задержка видео : -208 мс.
Размер потока : 25,9 Мбайт (3%)
Текст #1
Идентификатор : 189 (0xBD)-32 (0x20)
Формат : RLE
Формат/Информация : Run-length encoding
Режим смешивания : DVD-Video
Задержка видео : 1 с. 720 мс.
Текст #2
Идентификатор : 189 (0xBD)-33 (0x21)
Формат : RLE
Формат/Информация : Run-length encoding
Режим смешивания : DVD-Video
Задержка видео : 1 с. 320 мс.
Меню
Общее
Полное имя : C:\Videos\Джейсон Х. DVD-9\VIDEO_TS\VTS_03_5.VOB
Формат : MPEG-PS
Размер файла : 358 Мбайт
Продолжительность : 7 м. 56 с.
Режим общего битрейта : Переменный
Общий поток : 6301 Кбит/сек
Видео
Идентификатор : 224 (0xE0)
Формат : MPEG Video
Версия формата : Version 2
Профиль формата : Main@Main
Параметр BVOP формата : Да
Параметр матрицы формата : Выборочная
Параметр GOP формата : M=3, N=15
Продолжительность : 7 м. 56 с.
Вид битрейта : Переменный
Битрейт : 5087 Кбит/сек
Максимальный битрейт : 7500 Кбит/сек
Ширина : 720 пикселей
Высота : 576 пикселей
Соотношение сторон : 16:9
Частота кадров : 25,000 кадров/сек
Стандарт вещания : PAL
Цветовое пространство : YUV
Субдискретизация насыщенности : 4:2:0
Битовая глубина : 8 бит
Тип развёртки : Чересстрочная
Порядок развёртки : Верхнее поле первое
Метод сжатия : С потерями
Бит/(Пиксели*Кадры) : 0.491
Размер потока : 289 Мбайт (81%)
Аудио #1
Идентификатор : 189 (0xBD)-128 (0x80)
Формат : AC-3
Формат/Информация : Audio Coding 3
Расширение режима : CM (complete main)
Параметр Endianness формата : Big
Режим смешивания : DVD-Video
Продолжительность : 7 м. 56 с.
Вид битрейта : Постоянный
Битрейт : 448 Кбит/сек
Каналы : 6 каналов
Расположение каналов : Front: L C R, Side: L R, LFE
Частота : 48,0 КГц
Битовая глубина : 16 бит
Метод сжатия : С потерями
Задержка видео : -360 мс.
Размер потока : 25,4 Мбайт (7%)
Аудио #2
Идентификатор : 189 (0xBD)-129 (0x81)
Формат : AC-3
Формат/Информация : Audio Coding 3
Расширение режима : CM (complete main)
Параметр Endianness формата : Big
Режим смешивания : DVD-Video
Продолжительность : 7 м. 56 с.
Вид битрейта : Постоянный
Битрейт : 448 Кбит/сек
Каналы : 6 каналов
Расположение каналов : Front: L C R, Side: L R, LFE
Частота : 48,0 КГц
Битовая глубина : 16 бит
Метод сжатия : С потерями
Задержка видео : -360 мс.
Размер потока : 25,4 Мбайт (7%)
Аудио #3
Идентификатор : 189 (0xBD)-130 (0x82)
Формат : AC-3
Формат/Информация : Audio Coding 3
Расширение режима : CM (complete main)
Параметр Endianness формата : Big
Режим смешивания : DVD-Video
Продолжительность : 7 м. 56 с.
Вид битрейта : Постоянный
Битрейт : 192 Кбит/сек
Каналы : 2 канала
Расположение каналов : Front: L R
Частота : 48,0 КГц
Битовая глубина : 16 бит
Метод сжатия : С потерями
Задержка видео : -328 мс.
Размер потока : 10,9 Мбайт (3%)
Текст #1
Идентификатор : 189 (0xBD)-32 (0x20)
Формат : RLE
Формат/Информация : Run-length encoding
Режим смешивания : DVD-Video
Задержка видео : 2 с. 760 мс.
Текст #2
Идентификатор : 189 (0xBD)-33 (0x21)
Формат : RLE
Формат/Информация : Run-length encoding
Режим смешивания : DVD-Video
Задержка видео : 2 с. 520 мс.
Меню
Общее
Полное имя : C:\Videos\Джейсон Х. DVD-9\VIDEO_TS\VTS_04_0.BUP
Формат : DVD Video
Профиль формата : Program
Размер файла : 24,0 Кбайт
Продолжительность : 17 м.
Режим общего битрейта : Переменный
Общий поток : 187 бит/сек
Видео
Идентификатор : 224 (0xE0)
Формат : MPEG Video
Версия формата : Version 2
Продолжительность : 17 м.
Вид битрейта : Переменный
Ширина : 720 пикселей
Высота : 576 пикселей
Соотношение сторон : 16:9
Частота кадров : 25,000 кадров/сек
Стандарт вещания : PAL
Метод сжатия : С потерями
Аудио
Идентификатор : 128 (0x80)
Формат : AC-3
Формат/Информация : Audio Coding 3
Продолжительность : 17 м.
Каналы : 2 канала
Частота : 48,0 КГц
Метод сжатия : С потерями
Язык : English
Текст
Идентификатор : 32 (0x20)
Формат : RLE
Формат/Информация : Run-length encoding
Битовая глубина : 2 бит
Язык : Russian
Меню
Продолжительность : 17 м.
00:00:00.000 : Chapter 1
00:17:32.000 : Chapter 2
List (Audio) : 0
List (Subtitles 4/3) : 0
List (Subtitles Wide) : 0
List (Subtitles Letterbox) : 0
List (Subtitles Pan&Scan) : 0
Общее
Полное имя : C:\Videos\Джейсон Х. DVD-9\VIDEO_TS\VTS_04_0.IFO
Формат : DVD Video
Профиль формата : Program
Размер файла : 24,0 Кбайт
Продолжительность : 17 м.
Режим общего битрейта : Переменный
Общий поток : 187 бит/сек
Видео
Идентификатор : 224 (0xE0)
Формат : MPEG Video
Версия формата : Version 2
Продолжительность : 17 м.
Вид битрейта : Переменный
Ширина : 720 пикселей
Высота : 576 пикселей
Соотношение сторон : 16:9
Частота кадров : 25,000 кадров/сек
Стандарт вещания : PAL
Метод сжатия : С потерями
Аудио
Идентификатор : 128 (0x80)
Формат : AC-3
Формат/Информация : Audio Coding 3
Продолжительность : 17 м.
Каналы : 2 канала
Частота : 48,0 КГц
Метод сжатия : С потерями
Язык : English
Текст
Идентификатор : 32 (0x20)
Формат : RLE
Формат/Информация : Run-length encoding
Битовая глубина : 2 бит
Язык : Russian
Меню
Продолжительность : 17 м.
00:00:00.000 : Chapter 1
00:17:32.000 : Chapter 2
List (Audio) : 0
List (Subtitles 4/3) : 0
List (Subtitles Wide) : 0
List (Subtitles Letterbox) : 0
List (Subtitles Pan&Scan) : 0
Общее
Полное имя : C:\Videos\Джейсон Х. DVD-9\VIDEO_TS\VTS_04_1.VOB
Формат : MPEG-PS
Размер файла : 701 Мбайт
Продолжительность : 17 м.
Режим общего битрейта : Переменный
Общий поток : 5593 Кбит/сек
Видео
Идентификатор : 224 (0xE0)
Формат : MPEG Video
Версия формата : Version 2
Профиль формата : Main@Main
Параметр BVOP формата : Да
Параметр матрицы формата : Выборочная
Параметр GOP формата : M=3, N=15
Продолжительность : 1 с. 40 мс.
Вид битрейта : Переменный
Битрейт : 5289 Кбит/сек
Максимальный битрейт : 7500 Кбит/сек
Ширина : 720 пикселей
Высота : 576 пикселей
Соотношение сторон : 16:9
Частота кадров : 25,000 кадров/сек
Стандарт вещания : PAL
Цветовое пространство : YUV
Субдискретизация насыщенности : 4:2:0
Битовая глубина : 8 бит
Тип развёртки : Чересстрочная
Порядок развёртки : Верхнее поле первое
Метод сжатия : С потерями
Бит/(Пиксели*Кадры) : 0.510
Размер потока : 671 Кбайт (0%)
Аудио
Идентификатор : 189 (0xBD)-128 (0x80)
Формат : AC-3
Формат/Информация : Audio Coding 3
Расширение режима : CM (complete main)
Параметр Endianness формата : Big
Режим смешивания : DVD-Video
Продолжительность : 17 м.
Вид битрейта : Постоянный
Битрейт : 192 Кбит/сек
Каналы : 2 канала
Расположение каналов : Front: L R
Частота : 48,0 КГц
Битовая глубина : 16 бит
Метод сжатия : С потерями
Задержка видео : -80 мс.
Размер потока : 24,1 Мбайт (3%)
Текст
Идентификатор : 189 (0xBD)-32 (0x20)
Формат : RLE
Формат/Информация : Run-length encoding
Режим смешивания : DVD-Video
Задержка видео : 7 с. 280 мс.
Меню
Общее
Полное имя : C:\Videos\Джейсон Х. DVD-9\VIDEO_TS\VTS_05_0.BUP
Формат : DVD Video
Профиль формата : Program
Размер файла : 14,0 Кбайт
Продолжительность : 1 м. 47 с.
Режим общего битрейта : Переменный
Общий поток : 1063 бит/сек
Видео
Идентификатор : 224 (0xE0)
Формат : MPEG Video
Версия формата : Version 2
Продолжительность : 1 м. 47 с.
Вид битрейта : Переменный
Ширина : 720 пикселей
Высота : 576 пикселей
Соотношение сторон : 16:9
Частота кадров : 25,000 кадров/сек
Стандарт вещания : PAL
Метод сжатия : С потерями
Аудио
Идентификатор : 128 (0x80)
Формат : AC-3
Формат/Информация : Audio Coding 3
Продолжительность : 1 м. 47 с.
Каналы : 6 каналов
Частота : 48,0 КГц
Метод сжатия : С потерями
Язык : English
Меню
Продолжительность : 1 м. 47 с.
00:00:00.000 : Chapter 1
00:01:47.400 : Chapter 2
List (Audio) : 0
Общее
Полное имя : C:\Videos\Джейсон Х. DVD-9\VIDEO_TS\VTS_05_0.IFO
Формат : DVD Video
Профиль формата : Program
Размер файла : 14,0 Кбайт
Продолжительность : 1 м. 47 с.
Режим общего битрейта : Переменный
Общий поток : 1063 бит/сек
Видео
Идентификатор : 224 (0xE0)
Формат : MPEG Video
Версия формата : Version 2
Продолжительность : 1 м. 47 с.
Вид битрейта : Переменный
Ширина : 720 пикселей
Высота : 576 пикселей
Соотношение сторон : 16:9
Частота кадров : 25,000 кадров/сек
Стандарт вещания : PAL
Метод сжатия : С потерями
Аудио
Идентификатор : 128 (0x80)
Формат : AC-3
Формат/Информация : Audio Coding 3
Продолжительность : 1 м. 47 с.
Каналы : 6 каналов
Частота : 48,0 КГц
Метод сжатия : С потерями
Язык : English
Меню
Продолжительность : 1 м. 47 с.
00:00:00.000 : Chapter 1
00:01:47.400 : Chapter 2
List (Audio) : 0
Общее
Полное имя : C:\Videos\Джейсон Х. DVD-9\VIDEO_TS\VTS_05_1.VOB
Формат : MPEG-PS
Размер файла : 74,8 Мбайт
Продолжительность : 1 м. 47 с.
Режим общего битрейта : Переменный
Общий поток : 5841 Кбит/сек
Видео
Идентификатор : 224 (0xE0)
Формат : MPEG Video
Версия формата : Version 2
Профиль формата : Main@Main
Параметр BVOP формата : Да
Параметр матрицы формата : Выборочная
Параметр GOP формата : M=3, N=15
Продолжительность : 1 с. 40 мс.
Вид битрейта : Переменный
Битрейт : 5276 Кбит/сек
Максимальный битрейт : 7500 Кбит/сек
Ширина : 720 пикселей
Высота : 576 пикселей
Соотношение сторон : 16:9
Частота кадров : 25,000 кадров/сек
Стандарт вещания : PAL
Цветовое пространство : YUV
Субдискретизация насыщенности : 4:2:0
Битовая глубина : 8 бит
Тип развёртки : Чересстрочная
Порядок развёртки : Верхнее поле первое
Метод сжатия : С потерями
Бит/(Пиксели*Кадры) : 0.509
Размер потока : 670 Кбайт (1%)
Аудио
Идентификатор : 189 (0xBD)-128 (0x80)
Формат : AC-3
Формат/Информация : Audio Coding 3
Расширение режима : CM (complete main)
Параметр Endianness формата : Big
Режим смешивания : DVD-Video
Продолжительность : 1 м. 47 с.
Вид битрейта : Постоянный
Битрейт : 448 Кбит/сек
Каналы : 6 каналов
Расположение каналов : Front: L C R, Side: L R, LFE
Частота : 48,0 КГц
Битовая глубина : 16 бит
Метод сжатия : С потерями
Задержка видео : -80 мс.
Размер потока : 5,74 Мбайт (8%)
Меню

Скриншоты DvdReMakePro

Скриншот начального проекта:

Скриншот финального проекта:
Для подготовки релиза использовались программы:
AnyDVD 7.1.6.0 – снятие региональной защиты + сграбливание файлов с исходного диска DVD-9
DvdReMakePro 3.6.3 – редактирование исходника и запись нового проекта
Paint, MuxMan 1.2.3 – редактирование меню
ImgBurn 2.5.8.0 – запись нового проекта на диск для проверки работоспособности
Image Grabber II – изготовление скриншотов
DVD Shrink 3.2. 015 – изготовление сэмпла
DVDInfo
MediaInfo GUI 0.7.61--Уважаемые Братья и Сестры! Пожалуйста, не улетучивайтесь сразу с раздачи. Оставаясь в сидах, Вы поддерживаете наш на плаву, помогаете скачать фильм ближнему, и освобождаете автора для скорейшего оформления новых релизов.--
Бонусы: нетДЖЕЙМС
И С А А К
Меню: есть, на русском, статичное, не озвученное
Сэмпл:
Тип релиза: DVD5 (Сжатый)
Контейнер: DVD-Video
Видео: MPEG-2 Video; PAL 16:9 (720x576) VBR, Auto Letterboxed; 6358 Kbps; 25 fps
Аудио: Russian (Dolby AC3, 6 ch); 448 Kbps; CBR; 6 ch; 16 bit; 48 KHz
Аудио 2: English (Dolby AC3, 6 ch); 448 Kbps; CBR; 6 ch; 16 bit; 48 KHz
Аудио 3: English (Dolby AC3, 2 ch); 192 Kbps; CBR; 2 ch; 16 bit; 48 KHz /комментарии создателей картины/

DVD&MediaInfo

DVDInfo
Title: Джейсон Х. DVD-5
Size: 4.36 Gb ( 4 570 876,00 KBytes ) - DVD-5
Enabled regions: 1, 2, 3, 4, 5, 6, 7, 8
Audio #1: AC3, 3/2 (L,C,R,SL,SR)+LFE ch, 448 kbps, Delay 0 mSec
Audio #2: AC3, 3/2 (L,C,R,SL,SR)+LFE ch, 448 kbps, Delay 0 mSec
Audio #3: AC3, 2/0 (L,R) ch, 192 kbps, Delay 0 mSec
VTS_01 :
Play Length: 00:00:09+00:00:00
Video: PAL 16:9 (720x576) VBR, Auto Letterboxed
Audio:
Not specified (Dolby AC3, 6 ch)
Not specified (Dolby AC3, 6 ch)
Subtitles:
Not specified
Not specified
VTS_02 :
Play Length: 00:00:00
Video: PAL 16:9 (720x576) VBR, Auto Letterboxed
Audio:
English (Dolby AC3, 2 ch)
Subtitles:
Russian
VTS_03 :
Play Length: 01:27:49
Video: PAL 16:9 (720x576) VBR, Auto Letterboxed
Audio:
Russian (Dolby AC3, 6 ch)
English (Dolby AC3, 6 ch)
English (Dolby AC3, 2 ch)
Subtitles:
Russian
English
VTS_04 :
Play Length: 00:00:00
Video: PAL 16:9 (720x576) VBR, Auto Letterboxed
Audio:
English (Dolby AC3, 2 ch)
Subtitles:
Russian
VTS_05 :
Play Length: 00:00:00
Video: PAL 16:9 (720x576) VBR, Auto Letterboxed
Audio:
English (Dolby AC3, 6 ch)
* Menus Information *
VIDEO_TS Menu
Video:
PAL 16:9 (720x576) VBR
Auto Pan&Scan
Language Unit :
Title Menu
VTS_01 Menu
Video:
PAL 16:9 (720x576) VBR
Auto Pan&Scan
Language Unit :
Root Menu
VTS_02 Menu
Video:
NTSC 4:3 (720x480) VBR
Auto Pan&Scan, Auto Letterboxed
Language Unit :
Root Menu
VTS_03 Menu
Video:
PAL 16:9 (720x576) VBR
Auto Pan&Scan
Audio:
Not specified (Dolby AC3, 6 ch)
Language Unit :
Root Menu
VTS_04 Menu
Video:
NTSC 4:3 (720x480) VBR
Auto Pan&Scan, Auto Letterboxed
Language Unit :
Root Menu
VTS_05 Menu
Video:
NTSC 4:3 (720x480) VBR
Auto Pan&Scan, Auto Letterboxed
Language Unit :
Root Menu
MediaInfo
Общее
Полное имя: D:\Movie\Джейсон Х. DVD-5\VIDEO_TS\VTS_03_4.VOB
Формат: MPEG-PS
Размер файла: 1024 Мбайт
Продолжительность: 18 м.
Режим общего битрейта: Переменный
Общий поток: 7597 Кбит/сек
Видео
Идентификатор: 224 (0xE0)
Формат: MPEG Video
Версия формата: Version 2
Профиль формата: Main@Main
Параметр BVOP формата: Да
Параметр матрицы формата: Выборочная
Параметр GOP формата: M=3, N=15
Продолжительность: 18 м.
Вид битрейта: Переменный
Битрейт: 6358 Кбит/сек
Максимальный битрейт: 7500 Кбит/сек
Ширина: 720 пикселей
Высота: 576 пикселей
Соотношение сторон: 16:9
Частота кадров: 25,000 кадров/сек
Стандарт вещания: PAL
Цветовое пространство: YUV
Субдискретизация насыщенности: 4:2:0
Битовая глубина: 8 бит
Тип развёртки: Чересстрочная
Порядок развёртки: Верхнее поле первое
Метод сжатия: С потерями
Бит/(Пиксели*Кадры): 0.613
Размер потока: 857 Мбайт (84%)
Аудио #1
Идентификатор: 189 (0xBD)-128 (0x80)
Формат: AC-3
Формат/Информация: Audio Coding 3
Расширение режима: CM (complete main)
Параметр Endianness формата: Big
Режим смешивания: DVD-Video
Продолжительность: 18 м.
Вид битрейта: Постоянный
Битрейт: 448 Кбит/сек
Каналы: 6 каналов
Расположение каналов: Front: L C R, Side: L R, LFE
Частота: 48,0 КГц
Битовая глубина: 16 бит
Метод сжатия: С потерями
Задержка видео: -240 мс.
Размер потока: 60,4 Мбайт (6%)
Аудио #2
Идентификатор: 189 (0xBD)-129 (0x81)
Формат: AC-3
Формат/Информация: Audio Coding 3
Расширение режима: CM (complete main)
Параметр Endianness формата: Big
Режим смешивания: DVD-Video
Продолжительность: 18 м.
Вид битрейта: Постоянный
Битрейт: 448 Кбит/сек
Каналы: 6 каналов
Расположение каналов: Front: L C R, Side: L R, LFE
Частота: 48,0 КГц
Битовая глубина: 16 бит
Метод сжатия: С потерями
Задержка видео: -240 мс.
Размер потока: 60,4 Мбайт (6%)
Аудио #3
Идентификатор: 189 (0xBD)-130 (0x82)
Формат: AC-3
Формат/Информация: Audio Coding 3
Расширение режима: CM (complete main)
Параметр Endianness формата: Big
Режим смешивания: DVD-Video
Продолжительность: 18 м.
Вид битрейта: Постоянный
Битрейт: 192 Кбит/сек
Каналы: 2 канала
Расположение каналов: Front: L R
Частота: 48,0 КГц
Битовая глубина: 16 бит
Метод сжатия: С потерями
Задержка видео: -208 мс.
Размер потока: 25,9 Мбайт (3%)
Текст #1
Идентификатор: 189 (0xBD)-32 (0x20)
Формат: RLE
Формат/Информация: Run-length encoding
Режим смешивания: DVD-Video
Задержка видео: 1 с. 720 мс.
Текст #2
Идентификатор: 189 (0xBD)-33 (0x21)
Формат: RLE
Формат/Информация: Run-length encoding
Режим смешивания: DVD-Video
Задержка видео: 1 с. 320 мс.
Меню

Скриншоты меню

Скриншоты фильма

[Profile]  [PM] 
Display posts:    
Reply to topic

Current time is: 13-Apr 23:50

All times are UTC + 2



You cannot post new topics in this forum
You cannot reply to topics in this forum
You cannot edit your posts in this forum
You cannot delete your posts in this forum
You cannot vote in polls in this forum
You cannot attach files in this forum
You cannot download files in this forum