Торжественный финал / Grand Piano (Эухенио Мира / Eugenio Mira) [2013, Испания, США, триллер, детектив, DVD5] R5 MVO

Reply to topic
 
Author
Message

Faust ®

Gender: Unknown

Longevity: 9 years 6 months

Posts: 14961

Reputation: 0 [+] [-]

Faust · Post 01-Dec-2014 01:20

[Quote] 

-Торжественный финал / Grand Piano-«Play or Die» -Страна: Испания, США
Студия: Antena 3 Televisión, Atresmedia TelevisiГіn, Grand Piano Productions, Nostromo Canarias 1 AIE, Nostromo Pictures, Solution Entertainment Group, Telefónica Producciones, Televisió de Catalunya (TV3)
Жанр: триллер, детектив
Год выпуска: 2013
Мировая премьера: 20 сентября 2013
Дата выхода DVD: 2 декабря 2014, «Парадиз / Активижен»
Продолжительность: 01:26:56
Перевод: Профессиональный (многоголосый закадровый) [Лицензия]
Cубтитры: нет
Оригинальная аудиодорожка: нет-Режиссер: Эухенио Мира / Eugenio Mira-В ролях: Элайджа Вуд, Джон Кьюсак, Аллен Лич, Тэмсин Эгертон, Керри Бише, Ди Уоллес-Стоун, Алекс Уинтер, Дон МакМанус, Дон Кресс, Кристофер Калер-Описание: История знаменитого пианиста, который на много лет оказывается отлученным от концертной деятельности из-за патологической боязни сцены. Когда же, наконец, ему удается преодолеть свой страх и выступить перед публикой, он вдруг узнает, что попал в смертельную ловушку. На выбор ему уготованы только два варианта — либо продолжать мастерски играть, либо погибнуть вместе с женой от рук загадочного безумца.-Бонусы: Скоро на DVD- -Качество: DVD5 R5
Формат: DVD-Video
Видео кодек: MPEG2
Аудио кодек: AC3
Видео: PAL 16:9 (720x576(0.507)) MPEG Video, 25,000 кадр/сек, 5258 Кбит/сек
Аудио: Russian (Dolby AC3, 6 ch) 384 Кбит/сек, 48,0 КГц--

DVDInfo

Title: Torzhestvennyj.final.2013.DVD5
Size: 3.42 Gb ( 3 587 022,00 KBytes ) - DVD-5
Enabled regions: 1, 2, 3, 4, 5, 6, 7, 8
VTS_01 :
Play Length: 01:26:56
Video: PAL 16:9 (720x576) VBR, Auto Letterboxed
Audio:
Russian (Dolby AC3, 6 ch)
VTS_02 :
Play Length: 00:03:26
Video: PAL 16:9 (720x576) VBR, Auto Letterboxed
Audio:
Not specified (Dolby AC3, 2 ch)
* Menus Information *
VIDEO_TS Menu
Video:
PAL 16:9 (720x576) VBR
Auto Pan&Scan
Audio:
Not specified (Dolby AC3, 2 ch)
Russian Language Unit :
Title Menu
VTS_01 Menu
Video:
PAL 16:9 (720x576) VBR
Auto Pan&Scan
Audio:
Not specified (Dolby AC3, 6 ch)
Russian Language Unit :
Root Menu
Chapter (PTT) Menu
VTS_02 Menu
Video:
NTSC 4:3 (720x480) VBR
Auto Pan&Scan, Auto Letterboxed
Russian Language Unit :
Root Menu

MediaInfo

Общее
Полное имя : F:\Новинки 2014\Torzhestvennyj.final.2013.DVD5\VIDEO_TS\VTS_01_2.VOB
Формат : MPEG-PS
Размер файла : 1024 Мбайт
Продолжительность : 24 м.
Режим общего битрейта : Переменный
Общий поток : 5757 Кбит/сек
Видео
Идентификатор : 224 (0xE0)
Формат : MPEG Video
Версия формата : Version 2
Профиль формата : Main@Main
Параметр BVOP формата : Да
Параметр матрицы формата : Выборочная
Параметр GOP формата : M=3, N=12
Продолжительность : 24 м.
Вид битрейта : Переменный
Битрейт : 5258 Кбит/сек
Максимальный битрейт : 8500 Кбит/сек
Ширина : 720 пикселей
Высота : 576 пикселей
Соотношение сторон : 16:9
Частота кадров : 25,000 кадров/сек
Стандарт вещания : PAL
Цветовое пространство : YUV
Субдискретизация насыщенности : 4:2:0
Битовая глубина : 8 бит
Тип развёртки : Прогрессивная
Порядок развёртки : Верхнее поле первое
Метод сжатия : С потерями
Бит/(Пиксели*Кадры) : 0.507
Временной код первого кадра : 01:25:48:01
Оригинал временного кода : Group of pictures header
Размер потока : 935 Мбайт (91%)
Аудио
Идентификатор : 189 (0xBD)-128 (0x80)
Формат : AC-3
Формат/Информация : Audio Coding 3
Расширение режима : CM (complete main)
Параметр Endianness формата : Big
Режим смешивания : DVD-Video
Продолжительность : 24 м.
Вид битрейта : Постоянный
Битрейт : 384 Кбит/сек
Каналы : 6 каналов
Расположение каналов : Front: L C R, Side: L R, LFE
Частота : 48,0 КГц
Битовая глубина : 16 бит
Метод сжатия : С потерями
Задержка видео : -728 мс.
Размер потока : 68,3 Мбайт (7%)

Скриншоты меню

Скриншоты фильма


-
-Раздача от группы:
[Profile]  [PM] 
Display posts:    
Reply to topic

Current time is: 14-Apr 23:03

All times are UTC + 2



You cannot post new topics in this forum
You cannot reply to topics in this forum
You cannot edit your posts in this forum
You cannot delete your posts in this forum
You cannot vote in polls in this forum
You cannot attach files in this forum
You cannot download files in this forum