Приключения маленьких итальянцев / Amori elementari (Серджо Бассо / Sergio Basso) [2014, Россия, Италия, комедия, семейный, DVD5] R5 Dub

Reply to topic
 
Author
Message

Faust ®

Gender: Unknown

Longevity: 9 years 6 months

Posts: 14969

Reputation: 0 [+] [-]

Faust · Post 05-Dec-2014 02:15

[Quote] 

Приключения маленьких итальянцев / Amori elementari
Страна: Россия, Италия
Жанр: комедия, семейный
Год выпуска: 2014
релиз на DVD: 2 декабря 2014, «CD Land»
Продолжительность: 01:34:20
Перевод: Профессиональный (дублированный)
Cубтитры: отсутствуют
Режиссер: Серджо Бассо / Sergio Basso
В ролях: Андрей Чернышов, Ольга Погодина, Кристиана Капотонди, Александр Ковтунец, Максим Бычков, Анна Потебня, Андреа Питторино, Лаура Гайя Пьячентилле, Ракеле Кремона, Бонни Маппиматтель
Описание: Неразлучные друзья из маленько итальянского альпийского городка занимаются фигурным катанием и хоккеем. Однажды по вине ребят пропадает ценная шайба, которая принадлежала их тренеру, бывшему известному российскому спортсмену. Они должны срочно, пока никто не заметил, вернуть ее! Это обстоятельство явилось причиной срочного отлета в Москву всех тех, кто случайно или специально был посвящен в эту тайну.
В Россию прибыли трое итальянских детей, один индус и двое русских ребят, живущих в Италии. Но в Москве одна из итальянских девочек решила сбежать, что усложнило и так непростые соревнования за шайбу в незнакомой стране…


Дополнительные материалы:
- отсутствуют
Меню: есть, на русском
Тип релиза: DVD5 R5
Контейнер: DVD-Video
Видео кодек: MPEG2
Аудио кодек: AC3
Видео: PAL 16:9 (720x576) VBR Auto Letterboxed ~ 5540 kbps avg
Аудио: Russian (Dolby AC3, 6 ch, 448 kbps)

DVDInfo

Title: Priklychenia.Malenkih.Italiancev.2014.DVD.R5.NiP
Size: 4.11 Gb ( 4 310 310,00 KBytes ) - DVD-5
Enabled regions: 1, 2, 3, 4, 5, 6, 7, 8
VTS_01 :
Play Length: 00:00:19
Video: PAL 16:9 (720x576) VBR, Auto Pan&Scan, Auto Letterboxed
Audio:
Not specified (Dolby AC3, 2 ch)
VTS_02 :
Play Length: 01:34:20
Video: PAL 16:9 (720x576) VBR, Auto Pan&Scan, Auto Letterboxed
Audio:
Not specified (Dolby AC3, 6 ch)
* Menus Information *
VIDEO_TS Menu
Video:
PAL 16:9 (720x576) VBR
Auto Pan&Scan, Auto Letterboxed
English Language Unit :
Title Menu
VTS_01 Menu
Video:
PAL 16:9 (720x576) VBR
Auto Pan&Scan, Auto Letterboxed
Audio:
Not specified (Dolby AC3, 6 ch)
English Language Unit :
Root Menu
VTS_02 Menu
Video:
PAL 4:3 (720x576) VBR
English Language Unit :
Root Menu

MediaInfo

Общее
Полное имя : I:\DVD\Priklychenia.Malenkih.Italiancev.2014.DVD.R5.NiP\VIDEO_TS\VTS_02_3.VOB
Формат : MPEG-PS
Размер файла : 1024 Мбайт
Продолжительность : 23 м.
Режим общего битрейта : Переменный
Общий поток : 6109 Кбит/сек
Видео
Идентификатор : 224 (0xE0)
Формат : MPEG Video
Версия формата : Version 2
Профиль формата : Main@Main
Параметр BVOP формата : Да
Параметр матрицы формата : Выборочная
Параметр GOP формата : M=3, N=12
Продолжительность : 23 м.
Вид битрейта : Переменный
Битрейт : 5540 Кбит/сек
Максимальный битрейт : 9000 Кбит/сек
Ширина : 720 пикселей
Высота : 576 пикселей
Соотношение сторон : 16:9
Частота кадров : 25,000 кадров/сек
Стандарт вещания : PAL
Цветовое пространство : YUV
Субдискретизация насыщенности : 4:2:0
Битовая глубина : 8 бит
Тип развёртки : Чересстрочная
Порядок развёртки : Верхнее поле первое
Метод сжатия : С потерями
Бит/(Пиксели*Кадры) : 0.534
Временной код первого кадра : 00:47:02:10
Оригинал временного кода : Group of pictures header
Размер потока : 929 Мбайт (91%)
Основные цвета : BT.601 PAL
Характеристики трансфера : BT.470 System B, BT.470 System G
Коэффициенты матрицы : BT.601
Аудио
Идентификатор : 189 (0xBD)-128 (0x80)
Формат : AC-3
Формат/Информация : Audio Coding 3
Расширение режима : CM (complete main)
Параметр Endianness формата : Big
Режим смешивания : DVD-Video
Продолжительность : 23 м.
Вид битрейта : Постоянный
Битрейт : 448 Кбит/сек
Каналы : 6 каналов
Расположение каналов : Front: L C R, Side: L R, LFE
Частота : 48,0 КГц
Битовая глубина : 16 бит
Метод сжатия : С потерями
Задержка видео : -384 мс.
Размер потока : 75,1 Мбайт (7%)
Меню

Скриншоты меню

Скриншоты

[Profile]  [PM] 
Display posts:    
Reply to topic

Current time is: 17-Apr 04:23

All times are UTC + 2



You cannot post new topics in this forum
You cannot reply to topics in this forum
You cannot edit your posts in this forum
You cannot delete your posts in this forum
You cannot vote in polls in this forum
You cannot attach files in this forum
You cannot download files in this forum