Обитель проклятых / Eliza Graves (Брэд Андерсон / Brad Anderson) [2014, США, Триллер, DVD9] R5 Dub |Лицензия|

Reply to topic
 
Author
Message

Faust ®

Gender: Unknown

Longevity: 9 years 6 months

Posts: 14961

Reputation: 0 [+] [-]

Faust · Post 07-Dec-2014 01:20

[Quote] 

Обитель проклятых / Eliza Graves«No one is what they seem» Страна: США
Жанр: триллер
Год выпуска: 2014
релиз на DVD: 11 декабря 2014, «CP Дистрибуция»
релиз на Blu-Ray: 11 декабря 2014, «CP Дистрибуция»
Продолжительность: 01:48:34
Перевод: Профессиональный (дублированный)
Cубтитры: отсутствуют
Режиссер: Брэд Андерсон / Brad Anderson
В ролях: Кейт Бекинсейл, Джим Стёрджесс, Бен Кингсли, Дэвид Тьюлис, Майкл Кейн, Брендан Глисон, Джейсон Флеминг, Софи Кеннеди Кларк, Шинед Кьюсак, Эдмунд Кингсли
Описание: Молодой медицинский работник Эдвард устраивается работать в психиатрическую лечебницу. Вскоре становится известно об исчезновении одного из лечащих врачей психушки. Эдвард обнаруживает, что его похитили пациенты больницы, а вскоре и вся психушка оказывается захвачена ими…


Дополнительные материалы:
- Смотрите на DVD
- Создатели и исполнители
Меню: есть, на русском
Тип релиза: DVD9 R5
Контейнер: DVD-Video
Видео кодек: MPEG2
Аудио кодек: AC3
Видео: PAL 16:9 (720x576) VBR Auto Letterboxed ~ 6130 kbps avg
Аудио: Russian (Dolby AC3, 6 ch, 448 kbps)

DVDInfo

Title: Obitel.Prokliatux.2014.DVD.R5.NiP
Size: 5.40 Gb ( 5 660 328,00 KBytes ) - DVD-9
Enabled regions: 1, 2, 3, 4, 5, 6, 7, 8
VTS_01 :
Play Length: 00:00:05
Video: PAL 4:3 (720x576) VBR
Audio:
Not specified (Dolby AC3, 2 ch)
Not specified (Dolby AC3, 2 ch)
Not specified (Dolby AC3, 2 ch)
Subtitles:
Not specified
Not specified
VTS_02 :
Play Length: 00:00:09
Video: PAL 16:9 (720x576) VBR, Auto Letterboxed
Audio:
Not specified (Dolby AC3, 2 ch)
Not specified (Dolby AC3, 2 ch)
Not specified (Dolby AC3, 2 ch)
Subtitles:
Not specified
VTS_03 :
Play Length: 00:02:07
Video: PAL 16:9 (720x576) VBR, Auto Letterboxed
Audio:
Not specified (Dolby AC3, 2 ch)
Subtitles:
Not specified
VTS_04 :
Play Length: 01:48:34
Video: PAL 16:9 (720x576) VBR, Auto Letterboxed
Audio:
Russian (Dolby AC3, 6 ch)
VTS_05 :
Play Length: 00:02:25
Video: PAL 16:9 (720x576) VBR, Auto Letterboxed
Audio:
Not specified (Dolby AC3, 6 ch)
Not specified (Dolby AC3, 6 ch)
Not specified (Dolby AC3, 6 ch)
Subtitles:
Not specified
VTS_06 :
Play Length: 00:01:38
Video: PAL 16:9 (720x576) VBR, Auto Letterboxed
Audio:
Not specified (Dolby AC3, 2 ch)
Subtitles:
Not specified
VTS_07 :
Play Length: 00:02:33
Video: PAL 16:9 (720x576) VBR, Auto Letterboxed
Audio:
Not specified (Dolby AC3, 2 ch)
Subtitles:
Not specified

MediaInfo

Общее
Полное имя : S:\Obitel.Prokliatux.2014.DVD.R5.NiP\VIDEO_TS\VTS_04_3.VOB
Формат : MPEG-PS
Размер файла : 1024 Мбайт
Продолжительность : 21 м.
Режим общего битрейта : Переменный
Общий поток : 6712 Кбит/сек
Видео
Идентификатор : 224 (0xE0)
Формат : MPEG Video
Версия формата : Version 2
Профиль формата : Main@Main
Параметр BVOP формата : Да
Параметр матрицы формата : По умолчанию
Параметр GOP формата : M=3, N=12
Продолжительность : 21 м.
Вид битрейта : Переменный
Битрейт : 6130 Кбит/сек
Максимальный битрейт : 8000 Кбит/сек
Ширина : 720 пикселей
Высота : 576 пикселей
Соотношение сторон : 16:9
Частота кадров : 25,000 кадров/сек
Стандарт вещания : PAL
Цветовое пространство : YUV
Субдискретизация насыщенности : 4:2:0
Битовая глубина : 8 бит
Тип развёртки : Прогрессивная
Метод сжатия : С потерями
Бит/(Пиксели*Кадры) : 0.591
Временной код первого кадра : 00:44:22:24
Оригинал временного кода : Group of pictures header
Размер потока : 935 Мбайт (91%)
Аудио
Идентификатор : 189 (0xBD)-128 (0x80)
Формат : AC-3
Формат/Информация : Audio Coding 3
Расширение режима : CM (complete main)
Параметр Endianness формата : Big
Режим смешивания : DVD-Video
Продолжительность : 21 м.
Вид битрейта : Постоянный
Битрейт : 448 Кбит/сек
Каналы : 6 каналов
Расположение каналов : Front: L C R, Side: L R, LFE
Частота : 48,0 КГц
Битовая глубина : 16 бит
Метод сжатия : С потерями
Задержка видео : -416 мс.
Размер потока : 68,4 Мбайт (7%)
Меню

Скриншоты меню

Скриншоты

[Profile]  [PM] 
Display posts:    
Reply to topic

Current time is: 14-Apr 22:41

All times are UTC + 2



You cannot post new topics in this forum
You cannot reply to topics in this forum
You cannot edit your posts in this forum
You cannot delete your posts in this forum
You cannot vote in polls in this forum
You cannot attach files in this forum
You cannot download files in this forum