Отвязная Калифорния / California Scheming (Марко Вебер / Marco Weber) [2014, США, триллер, DVD5] R5 MVO

Reply to topic
 
Author
Message

Faust ®

Gender: Unknown

Longevity: 9 years 6 months

Posts: 14961

Reputation: 0 [+] [-]

Faust · Post 07-Dec-2014 01:20

[Quote] 

Отвязная Калифорния / California Scheming«Она сводит вас с ума» Страна: Германия
Жанр: триллер
Год выпуска: 2014
релиз на DVD: 4 декабря 2014, «CD Land»
Продолжительность: 01:35:12
Перевод: Профессиональный (многоголосый закадровый)
Cубтитры: отсутствуют
Режиссер: Марко Вебер / Marco Weber
В ролях: Клаудия Кристиан, Спенсер Дэниелс, Маниш Дайал, С. А. Гриффин, Джессика Янн, Чад Лоу, Джина Мантенья, Майк Джером Путнэм, Рэйчел Сейфёрт, Девон Веркхейзер
Описание: Девушка-подросток, втягивает трех молодых людей в свои интриги. Коварный замысел героини приводит к непредвиденным последствиям, заставляя ее жертв столкнуться лицом к лицу с собственными страхами и смертью…


Дополнительные материалы:
- отсутствуют
Меню: есть, на русском
Тип релиза: DVD5 R5
Контейнер: DVD-Video
Видео кодек: MPEG2
Аудио кодек: AC3
Видео: PAL 16:9 (720x576) VBR Auto Letterboxed ~ 5415 kbps avg
Аудио: Russian (Dolby AC3, 6 ch, 448 kbps)

DVDInfo

Title: Otviyznaia.Kaliforniia.2014.DVD.R5.NiP
Size: 4.08 Gb ( 4 282 372,00 KBytes ) - DVD-5
Enabled regions: 1, 2, 3, 4, 5, 6, 7, 8
VTS_01 :
Play Length: 00:00:19
Video: PAL 16:9 (720x576) VBR, Auto Pan&Scan, Auto Letterboxed
Audio:
Not specified (Dolby AC3, 2 ch)
VTS_02 :
Play Length: 01:35:12
Video: PAL 16:9 (720x576) VBR, Auto Pan&Scan, Auto Letterboxed
Audio:
Not specified (Dolby AC3, 6 ch)
* Menus Information *
VIDEO_TS Menu
Video:
PAL 16:9 (720x576) VBR
Auto Pan&Scan, Auto Letterboxed
English Language Unit :
Title Menu
VTS_01 Menu
Video:
PAL 16:9 (720x576) VBR
Auto Pan&Scan, Auto Letterboxed
Audio:
Not specified (Dolby AC3, 6 ch)
English Language Unit :
Root Menu
VTS_02 Menu
Video:
PAL 4:3 (720x576) VBR
English Language Unit :
Root Menu

MediaInfo

Общее
Полное имя : I:\DVD_\Otviyznaia.Kaliforniia.2014.DVD.R5.NiP\VIDEO_TS\VTS_02_3.VOB
Формат : MPEG-PS
Размер файла : 1024 Мбайт
Продолжительность : 23 м.
Режим общего битрейта : Переменный
Общий поток : 5982 Кбит/сек
Видео
Идентификатор : 224 (0xE0)
Формат : MPEG Video
Версия формата : Version 2
Профиль формата : Main@Main
Параметр BVOP формата : Да
Параметр матрицы формата : Выборочная
Параметр GOP формата : M=3, N=12
Продолжительность : 23 м.
Вид битрейта : Переменный
Битрейт : 5415 Кбит/сек
Максимальный битрейт : 9000 Кбит/сек
Ширина : 720 пикселей
Высота : 576 пикселей
Соотношение сторон : 16:9
Частота кадров : 25,000 кадров/сек
Стандарт вещания : PAL
Цветовое пространство : YUV
Субдискретизация насыщенности : 4:2:0
Битовая глубина : 8 бит
Тип развёртки : Чересстрочная
Порядок развёртки : Верхнее поле первое
Метод сжатия : С потерями
Бит/(Пиксели*Кадры) : 0.522
Временной код первого кадра : 01:43:54:06
Оригинал временного кода : Group of pictures header
Размер потока : 927 Мбайт (91%)
Основные цвета : BT.601 PAL
Характеристики трансфера : BT.470 System B, BT.470 System G
Коэффициенты матрицы : BT.601
Аудио
Идентификатор : 189 (0xBD)-128 (0x80)
Формат : AC-3
Формат/Информация : Audio Coding 3
Расширение режима : CM (complete main)
Параметр Endianness формата : Big
Режим смешивания : DVD-Video
Продолжительность : 23 м.
Вид битрейта : Постоянный
Битрейт : 448 Кбит/сек
Каналы : 6 каналов
Расположение каналов : Front: L C R, Side: L R, LFE
Частота : 48,0 КГц
Битовая глубина : 16 бит
Метод сжатия : С потерями
Задержка видео : -384 мс.
Размер потока : 76,7 Мбайт (7%)
Меню

Скриншоты меню

Скриншоты

[Profile]  [PM] 
Display posts:    
Reply to topic

Current time is: 14-Apr 23:11

All times are UTC + 2



You cannot post new topics in this forum
You cannot reply to topics in this forum
You cannot edit your posts in this forum
You cannot delete your posts in this forum
You cannot vote in polls in this forum
You cannot attach files in this forum
You cannot download files in this forum