Страховщик / Automata (Габе Ибаньес / Gabe Ibáñez) [2014, Испания, Болгария, фантастика, триллер, DVD9] R5 Dub

Reply to topic
 
Author
Message

Faust ®

Gender: Unknown

Longevity: 9 years 6 months

Posts: 14946

Reputation: 0 [+] [-]

Faust · Post 18-Dec-2014 02:20

[Quote] 

-Страховщик / Automata-«Ваше время подошло к концу. Наше только начинается» -Страна: Испания, Болгария
Студия: Green Moon, Nu Boyana Viburno
Жанр: фантастика, триллер
Год выпуска: 2014
Мировая премьера: 20 сентября 2014
Российская премьера: 16 октября 2014, «Парадиз»
Дата выхода DVD: 9 декабря 2014, «Парадиз / Активижен»
Дата выхода Blu-Ray: 9 декабря 2014, «Парадиз / Активижен»
Продолжительность: 01:45:23
Перевод: Профессиональный (дублированный) [Лицензия]
Cубтитры: нет
Оригинальная аудиодорожка: нет-Режиссер: Габе Ибаньес / Gabe Ibáñez-В ролях: Антонио Бандерас, Биргитта Йорт Сёренсен, Мелани Гриффит, Дилан МакДермотт, Роберт Форстер, Тим МакИннерни, Энди Найман, Дэвид Райалл, Криста Кэмпбелл-Описание: Главным героем фильма — страховой агент компании по изготовлению роботов Жак Вокан, который обнаруживает, что изобретаемые роботы создаются не для эксплуатации, а для истребления.-Бонусы: нет- -Релиз группы: -Качество: DVD9 R5
Формат: DVD-Video
Видео кодек: MPEG2
Аудио кодек: AC3
Видео: PAL 16:9 (720x576(0.580)) MPEG Video, 25,000 кадр/сек, 6010 Кбит/сек
Аудио: Russian (Dolby AC3, 6 ch) 448 Кбит/сек, 48,0 КГц--

DVDInfo

Title: Рабочий
Size: 5.02 Gb ( 5 258 858 KBytes ) - DVD-9
Enabled regions: 1, 2, 3, 4, 5, 6, 7, 8
VTS_01 :
Play Length: 00:00:30
Video: PAL 16:9 (720x576) VBR, Auto Pan&Scan, Auto Letterboxed
Audio:
Russian (Dolby AC3, 2 ch)
English (Dolby AC3, 6 ch)
English (Dolby AC3, 6 ch)
VTS_02 :
Play Length: 01:45:23
Video: PAL 16:9 (720x576) VBR, Auto Pan&Scan, Auto Letterboxed
Audio:
Russian (Dolby AC3, 6 ch)
Menu Video:
PAL 16:9 (720x576) VBR
Auto Pan&Scan, Auto Letterboxed
Menu Subtitles:
Not specified
Menu English Language Unit :
Root Menu
Chapter (PTT) Menu

MediaInfo

Общее
Полное имя : F:\Новинки 2014\Strahovshhik.2014.DVD9\VIDEO_TS\VTS_02_1.VOB
Формат : MPEG-PS
Размер файла : 1024 Мбайт
Продолжительность : 21 м.
Режим общего битрейта : Переменный
Общий поток : 6589 Кбит/сек
Видео
Идентификатор : 224 (0xE0)
Формат : MPEG Video
Версия формата : Version 2
Профиль формата : Main@Main
Параметр BVOP формата : Да
Параметр матрицы формата : Выборочная
Параметр GOP формата : M=3, N=12
Продолжительность : 21 м.
Вид битрейта : Переменный
Битрейт : 6010 Кбит/сек
Максимальный битрейт : 8000 Кбит/сек
Ширина : 720 пикселей
Высота : 576 пикселей
Соотношение сторон : 16:9
Частота кадров : 25,000 кадров/сек
Стандарт вещания : PAL
Цветовое пространство : YUV
Субдискретизация насыщенности : 4:2:0
Битовая глубина : 8 бит
Тип развёртки : Прогрессивная
Метод сжатия : С потерями
Бит/(Пиксели*Кадры) : 0.580
Временной код первого кадра : 00:00:00:00
Оригинал временного кода : Group of pictures header
Размер потока : 934 Мбайт (91%)
Gop_OpenClosed_FirstFrame : Closed
Аудио
Идентификатор : 189 (0xBD)-128 (0x80)
Формат : AC-3
Формат/Информация : Audio Coding 3
Расширение режима : CM (complete main)
Параметр Endianness формата : Big
Режим смешивания : DVD-Video
Продолжительность : 21 м.
Вид битрейта : Постоянный
Битрейт : 448 Кбит/сек
Каналы : 6 каналов
Расположение каналов : Front: L C R, Side: L R, LFE
Частота : 48,0 КГц
Битовая глубина : 16 бит
Метод сжатия : С потерями
Размер потока : 69,6 Мбайт (7%)

Скриншоты меню

Скриншоты фильма


-
-Раздача от группы:
[Profile]  [PM] 
Display posts:    
Reply to topic

Current time is: 12-Apr 04:56

All times are UTC + 2



You cannot post new topics in this forum
You cannot reply to topics in this forum
You cannot edit your posts in this forum
You cannot delete your posts in this forum
You cannot vote in polls in this forum
You cannot attach files in this forum
You cannot download files in this forum