Прежде чем я усну / Before I Go to Sleep (Роуэн Жоффе / Rowan Joffe) [2014, Великобритания, Франция, Швеция, триллер, детектив, драма, DVD5] R5 Dub

Reply to topic
 
Author
Message

Faust ®

Gender: Unknown

Longevity: 9 years 6 months

Posts: 14955

Reputation: 0 [+] [-]

Faust · Post 22-Dec-2014 01:30

[Quote] 

-Прежде чем я усну / Before I Go to Sleep-«Никому не доверяй» -Страна: Великобритания, Франция, Швеция
Студия: Clarius Entertainment, Film i Väst, Filmgate Films, Millennium Films, Scott Free Productions, Studio Canal
Жанр: триллер, детектив, драма
Год выпуска: 2014
Мировая премьера: 4 сентября 2014
Российская премьера: 30 октября 2014, «Парадиз»
Дата выхода DVD: 16 декабря 2014, «Парадиз / Активижен»
Дата выхода Blu-Ray: 16 декабря 2014, «Парадиз / Активижен»
Продолжительность: 01:28:17
Перевод: Профессиональный (дублированный) [Лицензия]
Cубтитры: нет
Оригинальная аудиодорожка: нет-Режиссер: Роуэн Жоффе / Rowan Joffe-В ролях: Николь Кидман, Колин Фёрт, Марк Стронг, Бен Кромптон, Энн-Мэри Дафф, Адам Леви, Гэбриел Стронг, Флинн МакАртур, Дин-Чарльз Чепмен, Ханна Блэмайерс-Описание: История о женщине, потерявшей память: каждое утро последние двадцать лет просто исчезают из ее воспоминаний, и каждое утро ей приходится по крупицам восстанавливать собственную жизнь.-Бонусы: нет- -Релиз группы: -Качество: DVD5 R5
Формат: DVD-Video
Видео кодек: MPEG2
Аудио кодек: AC3
Видео: PAL 16:9 (720x576(0.599)) MPEG Video, 25,000 кадр/сек, 6207 Кбит/сек
Аудио: Russian (Dolby AC3, 6 ch) 448 Кбит/сек, 48,0 КГц--

DVDInfo

Title: Рабочий
Size: 4.20 Gb ( 4 403 376 KBytes ) - DVD-5
Enabled regions: 1, 2, 3, 4, 5, 6, 7, 8
VTS_01 :
Play Length: 00:00:30
Video: PAL 16:9 (720x576) VBR, Auto Pan&Scan, Auto Letterboxed
Audio:
Russian (Dolby AC3, 2 ch)
English (Dolby AC3, 6 ch)
English (Dolby AC3, 6 ch)
VTS_02 :
Play Length: 01:28:17
Video: PAL 16:9 (720x576) VBR, Auto Pan&Scan, Auto Letterboxed
Audio:
Russian (Dolby AC3, 6 ch)
Menu Video:
PAL 16:9 (720x576) VBR
Auto Pan&Scan, Auto Letterboxed
Menu Subtitles:
Not specified
Menu English Language Unit :
Root Menu
Chapter (PTT) Menu

MediaInfo

Общее
Полное имя : F:\Новинки 2014\Prezhde.chem.ja.usnu.2014.DVD5\VIDEO_TS\VTS_02_1.VOB
Формат : MPEG-PS
Размер файла : 1024 Мбайт
Продолжительность : 21 м.
Режим общего битрейта : Переменный
Общий поток : 6790 Кбит/сек
Видео
Идентификатор : 224 (0xE0)
Формат : MPEG Video
Версия формата : Version 2
Профиль формата : Main@Main
Параметр BVOP формата : Да
Параметр матрицы формата : Выборочная
Параметр GOP формата : Variable
Продолжительность : 21 м.
Вид битрейта : Переменный
Битрейт : 6207 Кбит/сек
Максимальный битрейт : 8000 Кбит/сек
Ширина : 720 пикселей
Высота : 576 пикселей
Соотношение сторон : 16:9
Частота кадров : 25,000 кадров/сек
Стандарт вещания : PAL
Цветовое пространство : YUV
Субдискретизация насыщенности : 4:2:0
Битовая глубина : 8 бит
Тип развёртки : Прогрессивная
Метод сжатия : С потерями
Бит/(Пиксели*Кадры) : 0.599
Временной код первого кадра : 00:00:00:00
Оригинал временного кода : Group of pictures header
Размер потока : 936 Мбайт (91%)
Gop_OpenClosed_FirstFrame : Closed
Аудио
Идентификатор : 189 (0xBD)-128 (0x80)
Формат : AC-3
Формат/Информация : Audio Coding 3
Расширение режима : CM (complete main)
Параметр Endianness формата : Big
Режим смешивания : DVD-Video
Продолжительность : 21 м.
Вид битрейта : Постоянный
Битрейт : 448 Кбит/сек
Каналы : 6 каналов
Расположение каналов : Front: L C R, Side: L R, LFE
Частота : 48,0 КГц
Битовая глубина : 16 бит
Метод сжатия : С потерями
Размер потока : 67,5 Мбайт (7%)

Скриншоты меню

Скриншоты фильма


-
-Раздача от группы:
[Profile]  [PM] 
Display posts:    
Reply to topic

Current time is: 14-Apr 00:42

All times are UTC + 2



You cannot post new topics in this forum
You cannot reply to topics in this forum
You cannot edit your posts in this forum
You cannot delete your posts in this forum
You cannot vote in polls in this forum
You cannot attach files in this forum
You cannot download files in this forum