Самка / Испуганная женщина / Femina ridens / The Frightened Woman (Пьеро Скивадзаппа / Piero Schivazappa) [1969, Италия, триллер, DVD9 (Custom)] [16:9 PAL R2] VO (Виктор Рутилов) + Sub Ita + Original Ita

Reply to topic
 
Author
Message

Faust ®

Gender: Unknown

Longevity: 9 years 6 months

Posts: 14946

Reputation: 0 [+] [-]

Faust · Post 14-Jan-2015 22:30

[Quote] 

Самка / Испуганная женщина / Femina ridens / The Frightened Woman
( Gioco d'amore, gioco di morte / The Laughing Woman )
16:9 PAL R2
Страна: Италия
Студия: Cemo Film
Жанр: триллер
Год выпуска: 1969
Продолжительность: 01:24:33
Перевод: Одноголосый закадровый - Виктор Рутилов
Cубтитры: итальянские
Оригинальная аудиодорожка: итальянский
Режиссер: Пьеро Скивадзаппа / Piero Schivazappa
В ролях: Филипп Леруа, Дагмар Лассандер, Лоренца Гуэррьери, Варо Солери, Мария Кумани Квазимодо, Мирелла Пампили
Описание: Молодая журналистка договаривается об интервью на тему стерилизации мужчин с доктором Заером. Доктор приглашает ее на ужин, подсыпает снотворное, отвозит на виллу и впервые в жизни пробует воспроизвести свои извращенные фантазии, навеянные детской травмой, на реальной женщине.
Доп. информация: Диск собран из Femina ridens_1969_DVD9 R2 найденного в сети. (Который на постере)
Бонусы: Фотогалерея, интервью, анонсы фильмов.
Меню: Анимированное, озвученное, на итальянском.Меню неотредактировано, переключение звуковых дорожек с пульта.
Фильм автоматически стартует с рус. звук. дорожкой.
--Спасибо за рус. одноголосый semiramida1970
-- --Femina ridens_1969_DVD9 R2_Sample_.rar-
-

Точка перехода на второй слой


-
-Тип релиза: DVD9 (Custom)
Контейнер: DVD-Video
Видео: PAL 16:9 (720x576) VBR Auto Letterboxed, ~ 7371.17 kbps avg
Аудио 1: Russian, AC3, 2/0 (L,R) ch, 192 kbps, Delay 0 mSec
Аудио 2: Italiano, AC3, 2/0 (L,R) ch, 192 kbps, Delay 0 mSec
Формат субтитров: prerendered (DVD/IDX+SUB)

MediaInfo

General
Complete name : Femina ridens_1969_DVD9 R2\VIDEO_TS\VTS_01_3.VOB
Format : MPEG-PS
File size : 1 024 MiB
Duration : 21mn 20s
Overall bit rate mode : Variable
Overall bit rate : 6 706 Kbps
Video
ID : 224 (0xE0)
Format : MPEG Video
Format version : Version 2
Format profile : Main@Main
Format settings, BVOP : Yes
Format settings, Matrix : Default
Format settings, GOP : M=3, N=12
Duration : 21mn 20s
Bit rate mode : Variable
Bit rate : 6 189 Kbps
Maximum bit rate : 9 300 Kbps
Width : 720 pixels
Height : 576 pixels
Display aspect ratio : 16:9
Frame rate : 25.000 fps
Standard : PAL
Color space : YUV
Chroma subsampling : 4:2:0
Bit depth : 8 bits
Scan type : Interlaced
Scan order : Top Field First
Compression mode : Lossy
Bits/(Pixel*Frame) : 0.597
Time code of first frame : 00:42:21:06
Time code source : Group of pictures header
Stream size : 945 MiB (92%)
Color primaries : BT.601 PAL
Transfer characteristics : BT.470 System B, BT.470 System G
Matrix coefficients : BT.601
Audio #1
ID : 189 (0xBD)-128 (0x80)
Format : AC-3
Format/Info : Audio Coding 3
Mode extension : CM (complete main)
Format settings, Endianness : Big
Muxing mode : DVD-Video
Duration : 21mn 20s
Bit rate mode : Constant
Bit rate : 192 Kbps
Channel(s) : 2 channels
Channel positions : Front: L R
Sampling rate : 48.0 KHz
Bit depth : 16 bits
Compression mode : Lossy
Delay relative to video : -312ms
Stream size : 29.3 MiB (3%)
Audio #2
ID : 189 (0xBD)-129 (0x81)
Format : AC-3
Format/Info : Audio Coding 3
Mode extension : CM (complete main)
Format settings, Endianness : Big
Muxing mode : DVD-Video
Duration : 21mn 20s
Bit rate mode : Constant
Bit rate : 192 Kbps
Channel(s) : 2 channels
Channel positions : Front: L R
Sampling rate : 48.0 KHz
Bit depth : 16 bits
Compression mode : Lossy
Delay relative to video : -312ms
Stream size : 29.3 MiB (3%)
Text
ID : 189 (0xBD)-33 (0x21)
Format : RLE
Format/Info : Run-length encoding
Muxing mode : DVD-Video
Menu

DVD Info

Title: Femina ridens_1969_DVD9 R2
Size: 6.21 Gb ( 6 514 308,00 KBytes ) - DVD-9
Enabled regions: 1, 2, 3, 4, 5, 6, 7, 8
VTS_01 :
Play Length: 01:24:33
Video: PAL 16:9 (720x576) VBR, Auto Letterboxed
Audio:
Russian, AC3, 2/0 (L,R) ch, 192 kbps, Delay 0 mSec
Italiano, AC3, 2/0 (L,R) ch, 192 kbps, Delay 0 mSec
Subtitles:
Italiano
Italiano
VTS_02 :
Play Length: 00:22:19+00:00:48
Video: PAL 16:9 (720x576) VBR, Auto Letterboxed
Audio:
Italiano (Dolby AC3, 2 ch)
Subtitles:
Italiano
Italiano
VTS_03 :
Play Length: 00:03:05+00:02:53+00:03:10+00:03:15+00:02:36+00:03:31+00:03:49+00:03:50+00:02:37
Video: PAL 4:3 (720x576) VBR
Audio:
Italiano (Dolby AC3, 2 ch)
Subtitles:
Italiano
Italiano
VTS_04 :
Play Length: 00:00:47
Video: PAL 16:9 (720x576) VBR, Auto Letterboxed
Audio:
Italiano (Dolby AC3, 2 ch)
Subtitles:
Italiano
Italiano
* Menus Information *
VIDEO_TS Menu
Video:
PAL 16:9 (720x576) VBR
Auto Letterboxed
Audio:
Not specified (Dolby AC3, 2 ch)
Italiano Language Unit :
Title Menu
VTS_01 Menu
Video:
PAL 16:9 (720x576) VBR
Auto Letterboxed
Audio:
Not specified (Dolby AC3, 2 ch)
Italiano Language Unit :
Root Menu
Subpicture Menu
Chapter (PTT) Menu
VTS_02 Menu
Video:
PAL 16:9 (720x576) VBR
Auto Letterboxed
Italiano Language Unit :
Root Menu
VTS_03 Menu
Video:
PAL 16:9 (720x576) VBR
Auto Letterboxed
Italiano Language Unit :
Root Menu
VTS_04 Menu
Video:
PAL 16:9 (720x576) VBR
Auto Letterboxed
Italiano Language Unit :
Root Menu

П. О.

PgcDemux 1.2.0.5 - разделение компонентов диска на файлы;
BeSweetv1.5b31+BeLight 0.21 - AC3 -> Wav
Sound Forge pro 10 - Wav -> AC3
MuxMan DVD authoring Professional 1.4.4 - мультиплексирование и авторинг DVD;
DVDRemake Pro 3.6.4 - реавторинг DVD;
DVD Shrink 3.2 - Сэмпл
VLC - Скриншоты-
-
-

-
-
-BeSweet v1.5b31 by DSPguru.
--------------------------
Using azid.dll v1.9 (b922) by Midas (midas@egon.gyaloglo.hu).
Logging start : 01/13/15 , 14:23:15.
BeSweet.exe -core( -input C:\Temp\FEMINA_ITA\AudioFile_80.ac3 -output C:\Temp\FEMINA_ITA\AudioFile_80.wav -2ch -logfile C:\Temp\FEMINA_ITA\AudioFile_80.log ) -azid( -s mono -c normal -L -3db )
[00:00:00:000] +------- BeSweet -----
[00:00:00:000] | Input : C:\Temp\FEMINA_ITA\AudioFile_80.ac3
[00:00:00:000] | Output: C:\Temp\FEMINA_ITA\AudioFile_80.wav
[00:00:00:000] | Floating-Point Process: No
[00:00:00:000] +-------- AZID -------
[00:00:00:000] | Input Channels Mode: 2/0, Bitrate: 192kbps
[00:00:00:000] | Output Stereo mode: Dolby surround 2 compatible
[00:00:00:000] | Total Gain: 0.000dB, Compression: Normal
[00:00:00:000] | LFE levels: To LR -3.0dB, To LFE 0.0dB
[00:00:00:000] | Center mix level: BSI
[00:00:00:000] | Surround mix level: BSI
[00:00:00:000] | Dialog normalization: No
[00:00:00:000] | Rear channels filtering: No
[00:00:00:000] | Source Sample-Rate: 48.0KHz
[00:00:00:000] +---------------------
[01:24:32:992] Conversion Completed !
[01:24:32:992] Actual Avg. Bitrate : 689kbps
[00:01:24:000]
[Profile]  [PM] 
Display posts:    
Reply to topic

Current time is: 12-Apr 05:33

All times are UTC + 2



You cannot post new topics in this forum
You cannot reply to topics in this forum
You cannot edit your posts in this forum
You cannot delete your posts in this forum
You cannot vote in polls in this forum
You cannot attach files in this forum
You cannot download files in this forum