Гарри Поттер и дары смерти: Часть 1 / Harry Potter and the Deathly Hallows: Part 1 (Дэвид Йэтс / David Yates) [2010, Великобритания, США, драма, фэнтези, детектив, приключения, DVD9 + DVD5] DUB Sub rus + original eng

Reply to topic
 
Author
Message

Satyr ®

Online

Gender: Unknown

Longevity: 12 years

Posts: 17258

Reputation: 56 [+] [-]

Satyr · Post 29-Jul-2011 02:34

[Quote] 

Гарри Поттер и дары смерти: Часть 1 / Harry Potter and the Deathly Hallows: Part 1 / DVD9 + DVD5. Лицензия
Страна: Великобритания, США
Студия: Warner brothers
Жанр: драма, фэнтези, детектив, приключения
Год выпуска: 2010
Продолжительность: 2:20:06
Перевод: Профессиональный (дублированный)
Cубтитры: русские
Оригинальная аудиодорожка: английский
Режиссер: Дэвид Йэтс / David Yates
В ролях: Эмма Уотсон, Дэниэл Рэдклифф, Руперт Гринт, Том Фелтон, Бонни Райт, Алан Рикман, Рэйф Файнс, Хелена Бонем Картер, Майкл Гэмбон, Брендан Глисон.
Описание: Гарри Поттера ждёт самое страшное испытание в жизни — смертельная схватка с Волан-де-Мортом. Ждать помощи не от кого — Гарри одинок, как никогда… Друзья и враги Гарри предстают в совершенно неожиданном свете. Граница между Добром и Злом становится всё призрачнее…
Бонусы: Полёт семи Гарри (5мин)
На лужайке с Рупертом, Томом, Оливером и Джеймсом(13мин)
Доп. сцены (10мин)
Фокусные точки (28мин)
Создание звуковой дорожки (4мин)
Дэн, Руперт, Эмма - кто быстрее(3 мин)
Меню: статичное, озвученное
Сэмпл: http://multi-up.com/465935
Тип релиза: DVD9
Контейнер: DVD-Video
Видео: MPEG-2, PAL, 720*576, 16:9, 5771кбит/с, 25,0кадров/с,
Аудио: Russian / English / Ukrainian (Dolby AC3, 6 ch) 384 Кбит/сек, 48,0 КГц - диск 1
Аудио 2: English (Dolby AC3, 2 ch) 192 Кбит/сек, 48,0 КГц - диск 2 (перевод субтитрами)

MediaInfo


General
Complete name : C:\Garri.Potter.i.dary.smerti.chast.1.2010.DVD9+DVD5\Disc 1\VIDEO_TS\VTS_01_1.VOB
Format : MPEG-PS
File size : 1 024 MiB
Duration : 20mn 26s
Overall bit rate : 7 003 Kbps
Video
ID : 224 (0xE0)
Format : MPEG Video
Format version : Version 2
Format profile : Main@Main
Format settings, BVOP : Yes
Format settings, Matrix : Default
Duration : 20mn 26s
Bit rate mode : Variable
Bit rate : 5 573 Kbps
Width : 720 pixels
Height : 576 pixels
Display aspect ratio : 16:9
Frame rate : 25.000 fps
Standard : PAL
Resolution : 8 bits
Colorimetry : 4:2:0
Scan type : Progressive
Scan order : Top Field First
Bits/(Pixel*Frame) : 0.538
Stream size : 815 MiB (80%)
Audio #1
ID : 128 (0x80)
Format : AC-3
Format/Info : Audio Coding 3
Duration : 20mn 26s
Bit rate mode : Constant
Bit rate : 384 Kbps
Channel(s) : 6 channels
Channel positions : Front: L C R, Surround: L R, LFE
Sampling rate : 48.0 KHz
Stream size : 56.1 MiB (5%)
Audio #2
ID : 129 (0x81)
Format : AC-3
Format/Info : Audio Coding 3
Duration : 20mn 26s
Bit rate mode : Constant
Bit rate : 384 Kbps
Channel(s) : 6 channels
Channel positions : Front: L C R, Surround: L R, LFE
Sampling rate : 48.0 KHz
Video delay : -74ms
Stream size : 56.1 MiB (5%)
Audio #3
ID : 130 (0x82)
Format : AC-3
Format/Info : Audio Coding 3
Duration : 20mn 26s
Bit rate mode : Constant
Bit rate : 384 Kbps
Channel(s) : 6 channels
Channel positions : Front: L C R, Surround: L R, LFE
Sampling rate : 48.0 KHz
Video delay : -74ms
Stream size : 56.1 MiB (5%)
Text #1
ID : 32 (0x20)
Format : RLE
Format/Info : Run-length encoding
Text #2
ID : 33 (0x21)
Format : RLE
Format/Info : Run-length encoding
Text #3
ID : 34 (0x22)
Format : RLE
Format/Info : Run-length encoding
Text #4
ID : 35 (0x23)
Format : RLE
Format/Info : Run-length encoding
Text #5
ID : 36 (0x24)
Format : RLE
Format/Info : Run-length encoding
Menu

DVDInfo


Disk 1


Title: HP7.DEATHLY.HALLOWS.PART.1.KINOPARK
Size: 6.89 Gb ( 7 223 084,00 KBytes ) - DVD-9
Enabled regions: 1, 2, 3, 4, 5, 6, 7, 8
VTS_01 :
Play Length: 02:20:06+00:00:00
Video: PAL 16:9 (720x576) VBR, Auto Letterboxed
Audio:
English (Dolby AC3, 6 ch)
Russian (Dolby AC3, 6 ch)
Ukrainian (Dolby AC3, 6 ch)
Subtitles:
English
Arabic
Hebrew
Portugues
Russian
Russian
VTS_02 :
Play Length: 00:00:10+00:00:12
Video: PAL 16:9 (720x576) VBR, Auto Letterboxed
Audio:
Not specified (Dolby AC3, 6 ch)
Subtitles:
Not specified
* Menus Information *
VIDEO_TS Menu
Video:
PAL 16:9 (720x576) VBR
Auto Pan&Scan
Language Unit :
Title Menu
VTS_01 Menu
Video:
PAL 16:9 (720x576) VBR
Auto Pan&Scan
Audio:
Not specified (Dolby AC3, 2 ch)
English Language Unit :
Root Menu
Language Unit :
VTS_02 Menu
Video:
NTSC 4:3 (720x480) VBR
Auto Pan&Scan, Auto Letterboxed
Language Unit :
Root Menu

Disk 2


Title: HP7.DEATHLY.HALLOWS.PT.1.BONUS.KINOPARK
Size: 2.40 Gb ( 2 516 666,00 KBytes ) - DVD-5
Enabled regions: 1, 2, 3, 4, 5, 6, 7, 8
VTS_01 :
Play Length: 00:13:04+00:00:00+00:05:16+00:06:09+00:03:41+00:02:39+00:10:30+{00:00:39}+{00:00:49}+{00:02:00}+{00:00:26}+{00:01:46}+{00:01:35}+{00:01:24}+{00:01:48}+00:28:23+{00:02:30}+{00:03:51}+{00:02:13}+{00:02:44}+{00:03:39}+{00:05:46}+{00:04:00}+{00:03:36}
Video: PAL 16:9 (720x576) VBR, Auto Letterboxed
Audio:
English (Dolby AC3, 2 ch)
VTS_02 :
Play Length: 00:00:10+00:00:12
Video: PAL 16:9 (720x576) VBR, Auto Letterboxed
Audio:
Not specified (Dolby AC3, 6 ch)
Subtitles:
Not specified
* Menus Information *
VIDEO_TS Menu
Video:
PAL 16:9 (720x576) VBR
Auto Pan&Scan
Language Unit :
Title Menu
VTS_01 Menu
Video:
PAL 16:9 (720x576) VBR
Auto Pan&Scan
Audio:
Not specified (Dolby AC3, 2 ch)
English Language Unit :
Root Menu
Language Unit :
Subpicture Menu
Audio Menu
Language Unit :
Subpicture Menu
Audio Menu
Language Unit :
Subpicture Menu
Audio Menu
Language Unit :
Subpicture Menu
Audio Menu
VTS_02 Menu
Video:
NTSC 4:3 (720x480) VBR
Auto Pan&Scan, Auto Letterboxed
Language Unit :
Root Menu

Скриншоты меню




Скриншоты







Скриншоты доп. материалов








[Profile]  [PM] 
Display posts:    
Reply to topic

Current time is: 14-Apr 00:15

All times are UTC + 2



You cannot post new topics in this forum
You cannot reply to topics in this forum
You cannot edit your posts in this forum
You cannot delete your posts in this forum
You cannot vote in polls in this forum
You cannot attach files in this forum
You cannot download files in this forum