Ворон / The Raven (Джеймс МакТиг / James McTeigue) [2012, США, Испания, Венгрия, триллер, детектив, DVD5] R5 Dub

Reply to topic
 
Author
Message

Anonym ®

Gender: Unknown

Reputation: 0 [+] [-]

Anonym · Post 14-Jun-2012 23:43

[Quote] 

-Ворон / The Raven-«Серийного убийцу остановит лишь тот, кто вдохновил его на преступление» -Страна: США, Испания, Венгрия
Студия: FilmNation Entertainment, Galavis Film, Intrepid Pictures, Pioneer Pictures, Relativity Media
Жанр: триллер, детектив
Год выпуска: 2012
Мировая премьера: 9 марта 2012
Российская премьера: 12 апреля 2012, «Top Film Distribution»
Дата выхода DVD: 7 июня 2012, «New Dream media», «Новый Диск»
Продолжительность: 01:45:56
Перевод: Профессиональный (дублированный) [Лицензия]
Cубтитры: нет-Режиссер: Джеймс МакТиг / James McTeigue-В ролях: Джон Кьюсак, Люк Эванс, Элис Ив, Брендан Глисон, Пэм Феррис, Брендан Койл, Оливер Джексон-Коэн, Кевин МакНэлли, Дэвид Леджено, Сергей Трифунович-Описание: Рассказ о последних днях жизни Эдгара Аллана По. Знаменитый поэт преследует серийного убийцу, чьи преступления очень похожи на те, что описаны в его произведениях.-Бонусы: нет- -Релиз группы: -Качество: DVD5 R5
Формат: DVD-Video
Видео кодек: MPEG2
Аудио кодек: AC3
Видео: PAL 16:9 (720x576(0.477)) MPEG Video, 25,000 кадр/сек, 4949 Кбит/сек
Аудио: Russian (Dolby AC3, 6 ch) 384 Кбит/сек, 48,0 КГц--

DVDInfo

Title:
Size: 4.14 Gb ( 4 337 560 KBytes ) - DVD-5
Enabled regions: 1, 2, 3, 4, 5, 6, 7, 8
VTS_01 :
Play Length: 01:45:56
Video: PAL 16:9 (720x576) VBR, Auto Pan&Scan
Audio:
Russian (Dolby AC3, 6 ch)
VTS_02 :
Play Length: 00:00:05
Video: PAL 16:9 (720x576) VBR, Auto Pan&Scan
VTS_03 :
Play Length: 00:00:08
Video: PAL 4:3 (720x576) VBR
VTS_04 :
Play Length: 00:00:20
Video: PAL 4:3 (720x576) VBR
Audio:
English (Dolby AC3, 2 ch)
Menu Video:
PAL 4:3 (720x576) VBR
Auto Pan&Scan, Auto Letterboxed
Menu Russian Language Unit :
Root Menu
Chapter (PTT) Menu

MediaInfo

Общее
Полное имя : J:\Новинки 2012\Voron.2012.DVD5\VIDEO_TS\VTS_01_3.VOB
Формат : MPEG-PS
Размер файла : 1024 Мбайт
Продолжительность : 26 м.
Режим общего битрейта : Переменный
Общий поток : 5441 Кбит/сек
Видео
Идентификатор : 224 (0xE0)
Формат : MPEG Video
Версия формата : Version 2
Профиль формата : Main@Main
Параметр BVOP формата : Да
Параметр матрицы формата : Выборочная
Параметр GOP формата : M=3, N=15
Продолжительность : 26 м.
Вид битрейта : Переменный
Битрейт : 4949 Кбит/сек
Максимальный битрейт : 8000 Кбит/сек
Ширина : 720 пикселей
Высота : 576 пикселей
Соотношение сторон : 16:9
Частота кадров : 25,000 кадров/сек
Стандарт вещания : PAL
Цветовое пространство : YUV
Субдискретизация насыщенности : 4:2:0
Битовая глубина : 8 бит
Тип развёртки : Чересстрочная
Порядок развёртки : Верхнее поле первое
Метод сжатия : С потерями
Бит/(Пиксели*Кадры) : 0.477
Размер потока : 931 Мбайт (91%)
Аудио
Идентификатор : 189 (0xBD)-128 (0x80)
Формат : AC-3
Формат/Информация : Audio Coding 3
Расширение режима : CM (complete main)
Параметр Endianness формата : Big
Режим смешивания : DVD-Video
Продолжительность : 26 м.
Вид битрейта : Постоянный
Битрейт : 384 Кбит/сек
Каналы : 6 каналов
Расположение каналов : Front: L C R, Side: L R, LFE
Частота : 48,0 КГц
Битовая глубина : 16 бит
Метод сжатия : С потерями
Задержка видео : -592 мс.
Размер потока : 72,3 Мбайт (7%)

Скриншоты меню

Скриншоты фильма

-
 
Display posts:    
Reply to topic

Current time is: 14-Apr 21:02

All times are UTC + 2



You cannot post new topics in this forum
You cannot reply to topics in this forum
You cannot edit your posts in this forum
You cannot delete your posts in this forum
You cannot vote in polls in this forum
You cannot attach files in this forum
You cannot download files in this forum