Дом с паранормальными явлениями / A Haunted House (Майкл Тиддес / Michael Tiddes) [2013, США, ужасы, комедия, DVD5 (Сжатый)] Dub + Sub Rus + Original Eng

Reply to topic
 
Author
Message

LORN-V ®

Gender: Male

Longevity: 8 years

Posts: 904

Reputation: 5 [+] [-]

Location: Munchen

LORN-V · Post 11-Apr-2013 14:45

[Quote] 

Дом с паранормальными явлениями / A Haunted House-«Здесь должен быть слоган»- Страна: США
Студия: Automatik Entertainment, Endgame Entertainment, Wayans Bros. Entertainment
Жанр: ужасы, комедия
Год выпуска: 2013
Продолжительность: 01:22:20
Перевод: Профессиональный (дублированный)
Cубтитры: русские
Оригинальная аудиодорожка: английский
Режиссер: Майкл Тиддес / Michael Tiddes-В ролях: Марлон Уайанс, Эссенс Эткинс, Седрик «Развлекатель», Ник Свардсон, Дэвид Кокнер, Дейв Шеридан, Марлен Форте, Аланна Юбак, Эндрю Дэйли, Эффион Крокетт-Описание: Малкольм и Киша переезжают в дом своей мечты, но скоро понимают, что там уже проживает демон. Когда Киша становится одержимой, Малкольм обращается за помощью к священнику, экстрасенсу и команде охотников за привидениями.- -Бонусы: отсутствуют
Меню: на русском языке, статичное, озвученное
Тип релиза: DVD5 (Сжатый)
Контейнер: DVD-Video
Видео: PAL 16:9 (720x576) VBR Auto Pan&Scan, Auto Letterboxed; 25,000 fps; 6377 kbps
Аудио 1: Russian (Dolby AC3, 6 ch, 384 Кбит/сек, 48,0 КГц)
Аудио 2: English (Dolby AC3, 6 ch, 384 Кбит/сек, 48,0 КГц)
Формат субтитров: prerendered (DVD/IDX+SUB)

Создание релиза

Обработано в DVDRemake Pro.+Photoshop+Muxman
Видео сжималось 18,4%.
Сжималось связкой DVD Rebuilder + CCE/Procoder в 5 проходов.
Удалёно: анонсы, русская DTS аудиодорожка, заставки и предупреждение. Меню переведено в статику.
Лишние кнопки затерты и закрыты.
Проверено на софтовых плеерах (VLC, KMP, WMP, MPC)

Лог-файл кодирования

[12:49:51] One Click encoding activated...
-----------------
[12:49:51] Phase I, PREPARATION started.
- DVD-RB v1.28.2
- AVISYNTH 2.5.8.0
- CCE 1.0.1.9 encoder selected.
- "Adaptive Quantizer Matrices" is enabled.
- Source: PODGOTOVKA RIPOV
- VTS_05: 2 693 963 sectors.
-- Scanning and writing .D2V & .AVS files
-- Processed 123 513 frames.
-- Building .AVS and .ECL files
- Reduction Level for DVD-5: 81,6%
- Overall Bitrate : 6 617Kbs
- Space for Video : 3 990 460KB
- Analyzing VTS_05 for optimal Q factor.
-- TargetSize (sectors):2 025 156
-- Sampling 1236 of 123513 frames.
-- Predicted size (sectors) at Q=16: 1 633 794
-- Predicted size (sectors) at Q=11: 1 897 254
-- Predicted size (sectors) at Q=10: 1 939 326
-- Predicted size (sectors) at Q=9: 1 972 529
-- Predicted size (sectors) at Q=8: 2 001 580
-- Predicted size (sectors) at Q=7: 2 030 524
- Q Value selected: 7
- Redistributing Final_Q: 7
- HIGH/LOW/TYPICAL Bitrates: 7 317/3 913/6 617 Kbs
[13:09:54] Phase I, PREPARATION completed in 20 minutes.
[13:09:54] Phase II ENCODING started
- Creating M2V for VTS_05 segment 0
- Creating M2V for VTS_05 segment 1
- Creating M2V for VTS_05 segment 2
- Creating M2V for VTS_05 segment 3
- Creating M2V for VTS_05 segment 4
- Creating M2V for VTS_05 segment 5
- Creating M2V for VTS_05 segment 6
- Creating M2V for VTS_05 segment 7
- Creating M2V for VTS_05 segment 8
- Creating M2V for VTS_05 segment 9
- Creating M2V for VTS_05 segment 10
- Creating M2V for VTS_05 segment 11
[14:24:52] Phase II ENCODING completed in 75 minutes.
[14:24:52] Phase III, REBUILD started.
- Copying IFO, BUP, and unaltered files...
- Processing VTS_05
- Reading/processing TMAP table...
- Rebuilding seg 0 VOBID 1 CELLID 1
- Rebuilding seg 1 VOBID 1 CELLID 2
- Rebuilding seg 2 VOBID 1 CELLID 3
- Rebuilding seg 3 VOBID 1 CELLID 4
- Rebuilding seg 4 VOBID 1 CELLID 5
- Rebuilding seg 5 VOBID 1 CELLID 6
- Rebuilding seg 6 VOBID 1 CELLID 7
- Rebuilding seg 7 VOBID 1 CELLID 8
- Rebuilding seg 8 VOBID 1 CELLID 9
- Rebuilding seg 9 VOBID 1 CELLID 10
- Rebuilding seg 10 VOBID 1 CELLID 11
- Rebuilding seg 11 VOBID 1 CELLID 12
- Updating NAVPACKS for VOBID_01
- Updated VTS_C_ADT.
- Updated VTS_VOBU_ADMAP.
- Updated IFO: VTS_05_0.IFO
- Updating TMAP table...
- Correcting VTS Sectors...
[14:35:59] Phase III, REBUILD completed in 11 minutes.
Done.
[14:35:59] PREPARE/ENCODE/REBUILD completed in 106 min.

MediaInfo

Общее
Полное имя : F:Dom.s.paranormalnymi.javlenijami.2013.D.DVD5\VIDEO_TS\VTS_05_3.VOB
Формат : MPEG-PS
Размер файла : 1024 Мбайт
Продолжительность : 19 м.
Общий поток : 7290 Кбит/сек
Видео
Идентификатор : 224 (0xE0)
Формат : MPEG Video
Версия формата : Version 2
Профиль формата : Main@Main
Параметр BVOP формата : Да
Параметр матрицы формата : По умолчанию
Продолжительность : 19 м.
Вид битрейта : Переменный
Битрейт : 6377 Кбит/сек
Номинальный битрейт : 8456 Кбит/сек
Ширина : 720 пикс.
Высота : 576 пикс.
Соотношение сторон : 16:9
Частота кадров : 25,000 кадр/сек
Стандарт вещания : PAL
Цветовое пространство : YUV
Подвыборка цветности : 4:2:0
Битовая глубина : 8 бит
Тип развёртки : Прогрессивная
Порядок развёртки : Нижнее поле первое
Метод сжатия : С потерями
Бит/(Пиксели*Кадры) : 0.615
Размер потока : 896 Мбайт (87%)
Аудио #1
Идентификатор : 189 (0xBD)-128 (0x80)
Формат : AC-3
Формат/Информация : Audio Coding 3
Расширение режима : CM (complete main)
Режим смешивания : DVD-Video
Продолжительность : 19 м.
Вид битрейта : Постоянный
Битрейт : 384 Кбит/сек
Каналы : 6 каналов
Расположение каналов : Front: L C R, Side: L R, LFE
Частота : 48,0 КГц
Битовая глубина : 16 бит
Метод сжатия : С потерями
Задержка видео : -392 мс.
Размер потока : 53,9 Мбайт (5%)
Аудио #2
Идентификатор : 189 (0xBD)-129 (0x81)
Формат : AC-3
Формат/Информация : Audio Coding 3
Расширение режима : CM (complete main)
Режим смешивания : DVD-Video
Продолжительность : 19 м.
Вид битрейта : Постоянный
Битрейт : 384 Кбит/сек
Каналы : 6 каналов
Расположение каналов : Front: L C R, Side: L R, LFE
Частота : 48,0 КГц
Битовая глубина : 16 бит
Метод сжатия : С потерями
Задержка видео : -392 мс.
Размер потока : 53,9 Мбайт (5%)
Текст
Идентификатор : 189 (0xBD)-32 (0x20)
Формат : RLE
Формат/Информация : Run-length encoding
Режим смешивания : DVD-Video
Продолжительность : 19 м.
Задержка видео : 2 с. 40 мс.
Меню

DVDInfo

Title: Dom.s.paranormalnymi.javlenijami.2013.D.DVD5
Size: 4.35 Gb ( 4 561 044,00 KBytes ) - DVD-5
Enabled regions: 1, 2, 3, 4, 5, 6, 7, 8
VTS_01 :
Play Length: 00:00:00
Video: PAL 4:3 (720x576) VBR
VTS_02 :
Play Length: 00:00:00
Video: PAL 16:9 (720x576) VBR, Auto Letterboxed
Audio:
Russian (Dolby AC3, 2 ch)
Russian (Dolby AC3, 2 ch)
VTS_03 :
Play Length: 00:00:00
Video: PAL 16:9 (720x576) VBR, Auto Letterboxed
Audio:
Russian (Dolby AC3, 2 ch)
Russian (Dolby AC3, 2 ch)
VTS_04 :
Play Length: 00:00:00
Video: PAL 16:9 (720x576) VBR, Auto Letterboxed
Audio:
Russian (Dolby AC3, 2 ch)
Russian (Dolby AC3, 2 ch)
VTS_05 :
Play Length: 01:22:20
Video: PAL 16:9 (720x576) VBR, Auto Pan&Scan, Auto Letterboxed
Audio:
Russian (Dolby AC3, 6 ch)
English (Dolby AC3, 6 ch)
Subtitles:
Russian
* Menus Information *
VIDEO_TS Menu
Video:
NTSC 4:3 (720x480) VBR
Auto Pan&Scan, Auto Letterboxed
English Language Unit :
Title Menu
VTS_01 Menu
Video:
PAL 16:9 (720x576) VBR
Auto Letterboxed
Audio:
Not specified (Dolby AC3, 2 ch)
English Language Unit :
Root Menu
VTS_02 Menu
Video:
PAL 4:3 (720x576) VBR
English Language Unit :
Root Menu
VTS_03 Menu
Video:
PAL 4:3 (720x576) VBR
English Language Unit :
Root Menu
VTS_04 Menu
Video:
PAL 4:3 (720x576) VBR
English Language Unit :
Root Menu
VTS_05 Menu
Video:
PAL 4:3 (720x576) VBR
English Language Unit :
Root Menu

Скриншоты меню

Скриншоты

[Profile]  [PM] 
Display posts:    
Reply to topic

Current time is: 14-Apr 21:23

All times are UTC + 2



You cannot post new topics in this forum
You cannot reply to topics in this forum
You cannot edit your posts in this forum
You cannot delete your posts in this forum
You cannot vote in polls in this forum
You cannot attach files in this forum
You cannot download files in this forum