Хорошие поступки / Good Deeds (Тайлер Перри / Tyler Perry) [2012, США, драма, мелодрама, комедия, DVD5] MVO + Sub Rus + Original Eng

Reply to topic
 
Author
Message

Satyr ®

Gender: Unknown

Longevity: 12 years

Posts: 17280

Reputation: 56 [+] [-]

Satyr · Post 03-Feb-2014 00:37

[Quote] 

Хорошие поступки / Good Deeds-«Wesley Deeds is About to Discover the Person He Was Meant to Be.»- Страна: США
Студия: Lionsgate / Tyler Perry Studios
Жанр: драма, мелодрама, комедия
Год выпуска: 2012
Продолжительность: 01:45:31-Перевод: Профессиональный (многоголосый закадровый)
Cубтитры: русские
Оригинальная аудиодорожка: английский-Режиссер: Тайлер Перри / Tyler Perry
В ролях: Тайлер Перри, Тэнди Ньютон, Гэбриэл Юнион, Эдди Сибриан, Брайан Дж. Уайт, Филисия Рашад, Беверли Джонсон, Ребекка Ромин, Джейми Кеннеди-Описание: Уэсли Дидс, успешный, богатый бизнесмен. Он всегда делал в своей жизни то, что от него обычно ожидали, будь то принятие руководства компанией его отца, или же планирование свадьбы с красавицей Натали. Однако, неожиданно для окружающих и себя самого, Уэсли встряхивается от рутины и повседневности после того, как встречает Линдси, мать-одиночку, работающую уборщицей в его офисном здании.
Решив помочь женщине вновь встать на ноги после ряда жизненных неудач, герой вдруг начинает осознавать, что что-то изменилось внутри него самого. Что-то, что наконец-то даст мужчине сил обменять свою привычную жизнь на ту, что на самом деле всегда была ему нужна.- -Бонусы: анонсы
Меню: на русском языке, статичное, озвученное-Тип релиза: DVD5
Контейнер: DVD-Video-Видео: PAL 16:9 (720x576) VBR Auto Letterboxed; 25,000 fps; 4318 kbps
Аудио 1: Russian (Dolby AC3, 6 ch, 384 Кбит/сек, 48,0 КГц)
Аудио 2: English (Dolby AC3, 6 ch, 384 Кбит/сек, 48,0 КГц)
Формат субтитров: prerendered (DVD/IDX+SUB)

MediaInfo

Общее
Полное имя : F:Horoshie.postupki.2012.P.DVD5\VIDEO_TS\VTS_05_2.VOB
Формат : MPEG-PS
Размер файла : 1024 Мбайт
Продолжительность : 27 м.
Общий поток : 5190 Кбит/сек
Видео
Идентификатор : 224 (0xE0)
Формат : MPEG Video
Версия формата : Version 2
Профиль формата : Main@Main
Параметр BVOP формата : Да
Параметр матрицы формата : По умолчанию
Параметры GOP формата : M=3, N=15
Продолжительность : 27 м.
Вид битрейта : Переменный
Битрейт : 4318 Кбит/сек
Номинальный битрейт : 8500 Кбит/сек
Ширина : 720 пикс.
Высота : 576 пикс.
Соотношение сторон : 16:9
Частота кадров : 25,000 кадр/сек
Стандарт вещания : PAL
Цветовое пространство : YUV
Подвыборка цветности : 4:2:0
Битовая глубина : 8 бит
Тип развёртки : Чересстрочная
Порядок развёртки : Верхнее поле первое
Метод сжатия : С потерями
Бит/(Пиксели*Кадры) : 0.417
Размер потока : 852 Мбайт (83%)
Аудио #1
Идентификатор : 189 (0xBD)-128 (0x80)
Формат : AC-3
Формат/Информация : Audio Coding 3
Расширение режима : CM (complete main)
Режим смешивания : DVD-Video
Продолжительность : 27 м.
Вид битрейта : Постоянный
Битрейт : 384 Кбит/сек
Каналы : 6 каналов
Расположение каналов : Front: L C R, Side: L R, LFE
Частота : 48,0 КГц
Битовая глубина : 16 бит
Метод сжатия : С потерями
Задержка видео : -888 мс.
Размер потока : 75,8 Мбайт (7%)
Аудио #2
Идентификатор : 189 (0xBD)-129 (0x81)
Формат : AC-3
Формат/Информация : Audio Coding 3
Расширение режима : CM (complete main)
Режим смешивания : DVD-Video
Продолжительность : 27 м.
Вид битрейта : Постоянный
Битрейт : 384 Кбит/сек
Каналы : 6 каналов
Расположение каналов : Front: L C R, Side: L R, LFE
Частота : 48,0 КГц
Битовая глубина : 16 бит
Метод сжатия : С потерями
Задержка видео : -888 мс.
Размер потока : 75,8 Мбайт (7%)
Текст
Идентификатор : 189 (0xBD)-32 (0x20)
Формат : RLE
Формат/Информация : Run-length encoding
Режим смешивания : DVD-Video
Задержка видео : -600 мс.
Меню

DVDInfo

Title: Horoshie.postupki.2012.P.DVD5
Size: 4.28 Gb ( 4 488 032,00 KBytes ) - DVD-5
Enabled regions: 1, 2, 3, 4, 5, 6, 7, 8
VTS_01 :
Play Length: 00:00:23
Video: PAL 4:3 (720x576) VBR
VTS_02 :
Play Length: 00:02:24
Video: PAL 16:9 (720x576) VBR, Auto Letterboxed
Audio:
Russian (Dolby AC3, 2 ch)
Russian (Dolby AC3, 2 ch)
VTS_03 :
Play Length: 00:01:59
Video: PAL 16:9 (720x576) VBR, Auto Letterboxed
Audio:
Russian (Dolby AC3, 2 ch)
Russian (Dolby AC3, 2 ch)
VTS_04 :
Play Length: 00:02:06
Video: PAL 16:9 (720x576) VBR, Auto Letterboxed
Audio:
Russian (Dolby AC3, 2 ch)
Russian (Dolby AC3, 2 ch)
VTS_05 :
Play Length: 01:45:31
Video: PAL 16:9 (720x576) VBR, Auto Letterboxed
Audio:
Russian (Dolby AC3, 6 ch)
English (Dolby AC3, 6 ch)
Subtitles:
Russian
* Menus Information *
VIDEO_TS Menu
Video:
PAL 16:9 (720x576) VBR
Auto Pan&Scan, Auto Letterboxed
English Language Unit :
Title Menu
VTS_01 Menu
Video:
PAL 16:9 (720x576) VBR
Auto Letterboxed
Audio:
Not specified (Dolby AC3, 2 ch)
English Language Unit :
Root Menu
VTS_02 Menu
Video:
PAL 4:3 (720x576) VBR
English Language Unit :
Root Menu
VTS_03 Menu
Video:
PAL 4:3 (720x576) VBR
English Language Unit :
Root Menu
VTS_04 Menu
Video:
PAL 4:3 (720x576) VBR
English Language Unit :
Root Menu
VTS_05 Menu
Video:
PAL 4:3 (720x576) VBR
English Language Unit :
Root Menu

Скриншоты меню

Скриншоты

Скриншоты доп. материалов

[Profile]  [PM] 
Display posts:    
Reply to topic

Current time is: 17-Apr 04:57

All times are UTC + 2



You cannot post new topics in this forum
You cannot reply to topics in this forum
You cannot edit your posts in this forum
You cannot delete your posts in this forum
You cannot vote in polls in this forum
You cannot attach files in this forum
You cannot download files in this forum