Семейные тайны / Relative Chaos (Стивен Робмен / Steven Robman) [2006, США, комедия, HDTV 1080i] MVO (1 канал)

Reply to topic
 
Author
Message

Faust ®

Gender: Unknown

Longevity: 10 years

Posts: 16609

Reputation: 0 [+] [-]

Faust · Post 25-May-2014 00:56

[Quote] 

Relative Chaos / Семейные тайны
Страна: США
Жанр: комедия
Год выпуска: 2006
Продолжительность: 01:26:43
Перевод: Профессиональный (многоголосый закадровый)
Cубтитры: нет
Оригинальная аудиодорожка: нет
Режиссер: Стивен Робмен / Steven Robman
В ролях: Кристофер Горам,Николас Брендон, Терри Брэдшоу, Харизма Карпентер, Фиона Рид, Джэйн Иствуд, Дженнифер Робертсон, Мэйко Нгуйен, Стэйси Смит, Сара Инглиш
Описание: Каждый год Гилберты, родители и их дети Гил, Лил и Дил — собираются на традиционных семейных соревнованиях по интеллекту, ловкости, и здравомыслию. Здесь каждый из трех детей вступает в конкурентную борьбу, для того чтобы получить почетное звание Держателя кубка. Дил в свои двадцать пять стал успешным адвокатом. У него большая квартира и роскошный автомобиль. Но личная жизнь героя не клеится, и он решает направить все свои силы на борьбу за кубок Гилберта. И возможно, награда, за которую борются и остальные члены семейства, достанется именно ему.
Сэмпл: http://multi-up.com/952959
Тип релиза: HDTV 1080i
Контейнер: TS
Видео: AVC, 1920x1080 (16/9), 25.000 fps, 12.5 Mbps (0.242 bit/pixel)
Аудио: MP2, 48.0 KHz, 2 ch, 192 Kbps, CBR (Russian)

MI

Общее
Идентификатор : 3 (0x3)
Полное имя : K:\МОИ РАЗДАЧИ\Семейные тайны.TS
Формат : MPEG-TS
Размер файла : 8,29 Гбайт
Продолжительность : 1 ч. 26 м.
Режим общего битрейта : Переменный
Общий поток : 13,7 Мбит/сек
Видео
Идентификатор : 2141 (0x85D)
Идентификатор меню : 21004 (0x520C)
Формат : AVC
Формат/Информация : Advanced Video Codec
Профиль формата : Main@L4.0
Параметр CABAC формата : Да
Параметр ReFrames формата : 3 кадра
Идентификатор кодека : 27
Продолжительность : 1 ч. 26 м.
Битрейт : 12,8 Мбит/сек
Ширина : 1920 пикселей
Высота : 1080 пикселей
Соотношение сторон : 16:9
Частота кадров : 25,000 кадров/сек
Стандарт вещания : Component
Цветовое пространство : YUV
Субдискретизация насыщенности : 4:2:0
Битовая глубина : 8 бит
Тип развёртки : Чересстрочная
Порядок развёртки : Верхнее поле первое
Бит/(Пиксели*Кадры) : 0.247
Размер потока : 7,76 Гбайт (94%)
Основные цвета : BT.709
Характеристики трансфера : BT.709
Коэффициенты матрицы : BT.709
Аудио
Идентификатор : 2142 (0x85E)
Идентификатор меню : 21004 (0x520C)
Формат : MPEG Audio
Версия формата : Version 1
Профиль формата : Layer 2
Идентификатор кодека : 4
Продолжительность : 1 ч. 26 м.
Вид битрейта : Постоянный
Битрейт : 192 Кбит/сек
Каналы : 2 канала
Частота : 48,0 КГц
Метод сжатия : С потерями
Размер потока : 119 Мбайт (1%)
Язык : Russian

Скриншоты


[Profile]  [PM] 
Display posts:    
Reply to topic

Current time is: 04-Dec 01:15

All times are UTC + 2



You cannot post new topics in this forum
You cannot reply to topics in this forum
You cannot edit your posts in this forum
You cannot delete your posts in this forum
You cannot vote in polls in this forum
You cannot attach files in this forum
You cannot download files in this forum