Ледокол / Icebreaker (Николай Хомерики) [2016, Драма, фильм-катастрофа, приключения, реальные события , WEB-DL 1080p] [DD5.1

Reply to topic
 
Author
Message

Враг Нароода ®

Gender: Unknown

Longevity: 4 years 9 months

Posts: 328

Reputation: 1 [+] [-]

Враг Нароода · Post 05-Dec-2016 12:55

[Quote] 

--Ледокол / Icebreaker-- --Год выпуска: 2016
Выпущено: Россия , Профит
Жанр:Драма, фильм-катастрофа, приключения, реальные события
Продолжительность: 02:03:53
Озвучка : -Русский
Субтитры: НЕТ
--IMDB --Режиссер:
Николай Хомерики--В ролях: Пётр Фёдоров, Сергей Пускепалис, Анна Михалкова, Ольга Смирнова (II), Александр Яценко, Александр Паль, Виталий Хаев, Алексей Барабаш, Дмитрий Муляр, Артур Чиргадзе
-- Основано на реальных событиях. 1985 год. Навстречу ледоколу «Михаил Громов» движется огромный айсберг. Уходя от столкновения с ним, судно попадает в ледовый плен и оказывается в вынужденном дрейфе вблизи побережья Антарктиды. Вокруг зловещая тишина и жуткий холод. Горючее на исходе… Нервы на пределе… И даже если можно было бы уйти — деваться все равно некуда. У командования ледокола нет права на ошибку. Одно неверное решение — и тяжелые льды раздавят судно…-- --Качество :WEB-DL 1080p
Формат: MKV
Видео кодек: H264
Видео: 6297Кбит/сек,1920х1080(16.9),в 25.038кадр/сек,AVC(High@L4)(CABAC/2 Ref Frames)
Аудио Кодек:AC3
Аудио #:AC3 , 384 Kbps, 48.0 KHz, 6 ch-Русский--

MediaInfo

Общее
Уникальный идентификатор : 197658065172370106626838559792022901959 (0x94B38F03752F5ED88F7C08CA713B54C7)
Полное имя : C:\ПИРАТИЯ(PIRATIYA)\ЛЕДОКОЛ(Icebreaker)\ICEBREAKER_2016_Rus_Russia_DD5.1_N.B_WEB-DL_1080\ICEBREAKER_2016_Rus_Russia_DD5.1_N.B_WEB-DL_1080.mkv
Формат : Matroska
Версия формата : Version 4 / Version 2
Размер файла : 5,83 Гбайт
Продолжительность : 2 ч. 4 м.
Режим общего битрейта : Переменный
Общий поток : 6683 Кбит/сек
Название фильма : ICEBREAKER_2016_Rus_Russia_DD5.1_N.B_WEB-DL_1080
Дата кодирования : UTC 2016-12-05 06:58:16
Программа кодирования : mkvmerge v9.6.0 ('Slave To Your Mind') 64bit
Библиотека кодирования : libebml v1.3.4 + libmatroska v1.4.5
Видео
Идентификатор : 1
Формат : AVC
Формат/Информация : Advanced Video Codec
Профиль формата : High@L4
Параметр CABAC формата : Да
Параметр ReFrames формата : 2 кадра
Параметр GOP формата : M=2, N=15
Идентификатор кодека : V_MPEG4/ISO/AVC
Продолжительность : 2 ч. 4 м.
Вид битрейта : Переменный
Битрейт : 6297 Кбит/сек
Максимальный битрейт : 16,0 Мбит/сек
Ширина : 1920 пикселей
Высота : 1080 пикселей
Соотношение сторон : 16:9
Режим частоты кадров : Переменный
Частота кадров : 25,038 кадров/сек
Частота кадров в оригинале : 29,970 (30000/1001) кадров/сек
Цветовое пространство : YUV
Субдискретизация насыщенности : 4:2:0
Битовая глубина : 8 бит
Тип развёртки : Прогрессивная
Бит/(Пиксели*Кадры) : 0.121
Размер потока : 5,49 Гбайт (94%)
Заголовок : ICEBREAKER_2016_Rus_Russia_DD5.1_N.B_WEB-DL_1080
Язык : Russian
Default : Нет
Forced : Нет
Аудио
Идентификатор : 2
Формат : AC-3
Формат/Информация : Audio Coding 3
Расширение режима : CM (complete main)
Параметр Endianness формата : Big
Идентификатор кодека : A_AC3
Продолжительность : 2 ч. 4 м.
Вид битрейта : Постоянный
Битрейт : 384 Кбит/сек
Каналы : 6 каналов
Расположение каналов : Front: L C R, Side: L R, LFE
Частота : 48,0 КГц
Частота кадров : 31,250 кадров/сек (1536 spf)
Битовая глубина : 16 бит
Метод сжатия : С потерями
Размер потока : 343 Мбайт (6%)
Заголовок : Rus
Язык : Russian
Default : Нет
Forced : Нет
--

Скриншоты

-- -- -- --Релиз от: Nikolai.Baranov & PIRATIYA -- -- -- --
[Profile]  [PM] 
Display posts:    
Reply to topic

Current time is: 26-Jun 18:45

All times are UTC + 2



You cannot post new topics in this forum
You cannot reply to topics in this forum
You cannot edit your posts in this forum
You cannot delete your posts in this forum
You cannot vote in polls in this forum
You cannot attach files in this forum
You cannot download files in this forum