28 панфиловцев / The 28 Panfilov heroes ( Ким Дружинин, Андрей Шальопа) [2016, Военный, драма , WEB-DL 1080p] [DD5.1]

Reply to topic
 
Author
Message

Враг Нароода ®

Gender: Unknown

Longevity: 4 years 9 months

Posts: 328

Reputation: 1 [+] [-]

Враг Нароода · Post 26-Dec-2016 19:00

[Quote] 

--28 панфиловцев / The 28 Panfilov heroes-- --Год выпуска: 2016
Выпущено: Россия ,, 28 панфиловцев, Libyan Palette Studios
Жанр:Военный, драма
Продолжительность: 02:00:37
Озвучка : -Русский
Субтитры: НЕТ
--IMDB --Режиссер:
Ким Дружинин, Андрей Шальопа--В ролях: Александр Устюгов, Яков Кучеревский, Азамат Нигманов, Олег Фёдоров, Алексей Морозов, Антон Кузнецов, Алексей Лонгин, Максим Белбородов, Дмитрий Мурашев, Виталий Коваленко
-- Осенью 1941-го года немецкие части, стоявшие возле Волоколамска, отделяло от Москвы каких-нибудь два часа по шоссе. Однако, на этом шоссе стояла 316-я стрелковая дивизия под командованием генерала И. В. Панфилова. Этот военачальник обладал настолько высоким авторитетом среди личного состава, что бойцы дивизии сами называли себя панфиловцами. А дивизию — панфиловской.-- --Качество: WEB-DL 1080p
Формат: MKV
Видео кодек: H264
Видео: 7345Кбит/сек,1920х1080(16.9),в 25.039кадр/сек,AVC(High@L4)(CABAC/2 Ref Frames)
Аудио Кодек: AC3
Аудио #: AC3 , 640 Kbps, 48.0 KHz, 6 ch-Русский--

MediaInfo

Общее
Уникальный идентификатор : 250996017699522049841244773401087413255 (0xBCD4131BAB4539B18E176B1B0C6B8C07)
Полное имя : C:\ПИРАТИЯ(PIRATIYA)\28 ПАНФИЛОВЦЕВ(The 28 Panfilov heroes)\The_28_Panfilov_heroes_2016_Russia_DD5.1_N.B_WEB-DL_1080p\The_28_Panfilov_heroes_2016_Russia_DD5.1_N.B_WEB-DL_1080p.mkv
Формат : Matroska
Версия формата : Version 4 / Version 2
Размер файла : 6,78 Гбайт
Продолжительность : 2 ч. 1 м.
Режим общего битрейта : Переменный
Общий поток : 7988 Кбит/сек
Название фильма : The_28_Panfilov_heroes_2016_Russia_DD5.1_N.B_WEB-DL_1080p
Дата кодирования : UTC 2016-12-26 10:38:19
Программа кодирования : mkvmerge v9.6.0 ('Slave To Your Mind') 64bit
Библиотека кодирования : libebml v1.3.4 + libmatroska v1.4.5
Видео
Идентификатор : 1
Формат : AVC
Формат/Информация : Advanced Video Codec
Профиль формата : High@L4
Параметр CABAC формата : Да
Параметр ReFrames формата : 2 кадра
Параметр GOP формата : M=2, N=15
Идентификатор кодека : V_MPEG4/ISO/AVC
Продолжительность : 2 ч. 1 м.
Вид битрейта : Переменный
Битрейт : 7345 Кбит/сек
Максимальный битрейт : 16,0 Мбит/сек
Ширина : 1920 пикселей
Высота : 1080 пикселей
Соотношение сторон : 16:9
Режим частоты кадров : Переменный
Частота кадров : 25,039 кадров/сек
Частота кадров в оригинале : 29,970 (30000/1001) кадров/сек
Цветовое пространство : YUV
Субдискретизация насыщенности : 4:2:0
Битовая глубина : 8 бит
Тип развёртки : Прогрессивная
Бит/(Пиксели*Кадры) : 0.141
Размер потока : 6,24 Гбайт (92%)
Заголовок : The_28_Panfilov_heroes_2016_Russia_DD5.1_N.B_WEB-DL_1080p
Язык : Russian
Default : Нет
Forced : Нет
Аудио
Идентификатор : 2
Формат : AC-3
Формат/Информация : Audio Coding 3
Расширение режима : CM (complete main)
Параметр Endianness формата : Big
Идентификатор кодека : A_AC3
Продолжительность : 2 ч. 1 м.
Вид битрейта : Постоянный
Битрейт : 640 Кбит/сек
Каналы : 6 каналов
Расположение каналов : Front: L C R, Side: L R, LFE
Частота : 48,0 КГц
Частота кадров : 31,250 кадров/сек (1536 spf)
Битовая глубина : 16 бит
Метод сжатия : С потерями
Размер потока : 557 Мбайт (8%)
Заголовок : Russia Original@DD5.1 AC3 ,640 Kbps, 48.0 KHz, 6 ch
Язык : Russian
Default : Нет
Forced : Нет
Меню
00:00:00.000 : en:Глава 01 / en:Глава 0
--

Скриншоты

-- -- -- --Релиз от: Nikolai.Baranov & PIRATIYA -- -- -- --
[Profile]  [PM] 
Display posts:    
Reply to topic

Current time is: 26-Jun 17:47

All times are UTC + 2



You cannot post new topics in this forum
You cannot reply to topics in this forum
You cannot edit your posts in this forum
You cannot delete your posts in this forum
You cannot vote in polls in this forum
You cannot attach files in this forum
You cannot download files in this forum