Притяжение / Attraction (Фёдор Бондарчук) [2017, Фантастика , WEB-DL] [1080p] [DD5.1] [iTunes]

Reply to topic
 
Author
Message

Враг Нароода ®

Gender: Unknown

Longevity: 4 years 9 months

Posts: 328

Reputation: 1 [+] [-]

Враг Нароода · Post 28-Feb-2017 21:02

[Quote] 

--Притяжение / Attraction-- --Год выпуска: 2017
Выпущено: Россия ,, Кинокомпания «Водород», Art Pictures Studio
Жанр: Фантастика
Продолжительность: 02:12:41
Озвучка : -Русский
Субтитры: НЕТ
--IMDB --Режиссер: Фёдор Бондарчук--В ролях: Ирина Старшенбаум, Александр Петров, Риналь Мухаметов, Олег Меньшиков, Евгений Сангаджиев, Алексей Маслодудов, Никита Кукушкин
-- …Как только что стало известно, сбитый над Москвой неопознанный объект имеет, возможно, внеземное происхождение. Большая часть столичного Чертанова оцеплена, к месту крушения стягиваются представители силовых структур, решается вопрос об эвакуации местных жителей. По словам нашего источника в Минобороны, сейчас специальная комиссия пытается вступить в контакт с так называемыми «гостями». В эти минуты мы готовим экстренный выпуск новостей и о развитии событий вы узнаете первыми…-- --Качество: WEB-DL 1080p
Формат: MKV
Видео кодек: H264
Видео: 7343Кбит/сек,1920х1080(16.9),в 25.036кадр/сек,AVC(High@L4)(CABAC/2 Ref Frames)
Аудио Кодек: AC3
Аудио #: AC3 , 640 Kbps, 48.0 KHz, 6 ch-Русский--

MediaInfo

Общее
Уникальный идентификатор : 176933864976596915246712266933178704778 (0x851C390E3C2C20408F5944576557A38A)
Полное имя : C:\ПИРАТИЯ(PIRATIYA)\HDTV 1080p\ПРИТЯЖЕНИЕ ( Attraction )\ATTRACTION_2017_Rus_iTunes_H264_DD5.1_N.B_WEB-DL_1080p_1080p\ATTRACTION_2017_Rus_iTunes_H264_DD5.1_N.B_WEB-DL_1080p_1080p.mkv
Формат : Matroska
Версия формата : Version 4 / Version 2
Размер файла : 7,44 Гбайт
Продолжительность : 2 ч. 13 м.
Режим общего битрейта : Переменный
Общий поток : 7985 Кбит/сек
Название фильма : ATTRACTION_2017_Rus_iTunes_H264_DD5.1_N.B_WEB-DL_1080p_1080p
Дата кодирования : UTC 2017-02-28 14:14:46
Программа кодирования : mkvmerge v9.9.0 ('Pick Up') 64bit
Библиотека кодирования : libebml v1.3.4 + libmatroska v1.4.5
Видео
Идентификатор : 1
Формат : AVC
Формат/Информация : Advanced Video Codec
Профиль формата : High@L4
Параметр CABAC формата : Да
Параметр ReFrames формата : 2 кадра
Параметр GOP формата : M=2, N=15
Идентификатор кодека : V_MPEG4/ISO/AVC
Продолжительность : 2 ч. 13 м.
Вид битрейта : Переменный
Битрейт : 7343 Кбит/сек
Максимальный битрейт : 16,0 Мбит/сек
Ширина : 1920 пикселей
Высота : 1080 пикселей
Соотношение сторон : 16:9
Режим частоты кадров : Переменный
Частота кадров : 25,036 кадров/сек
Частота кадров в оригинале : 29,970 (30000/1001) кадров/сек
Цветовое пространство : YUV
Субдискретизация насыщенности : 4:2:0
Битовая глубина : 8 бит
Тип развёртки : Прогрессивная
Бит/(Пиксели*Кадры) : 0.141
Размер потока : 6,84 Гбайт (92%)
Заголовок : ATTRACTION_2017_Rus_iTunes_H264_DD5.1_N.B_WEB-DL_1080p_1080p
Язык : Russian
Default : Нет
Forced : Нет
Аудио
Идентификатор : 2
Формат : AC-3
Формат/Информация : Audio Coding 3
Расширение режима : CM (complete main)
Параметр Endianness формата : Big
Идентификатор кодека : A_AC3
Продолжительность : 2 ч. 13 м.
Вид битрейта : Постоянный
Битрейт : 640 Кбит/сек
Каналы : 6 каналов
Расположение каналов : Front: L C R, Side: L R, LFE
Частота : 48,0 КГц
Частота кадров : 31,250 кадров/сек (1536 spf)
Битовая глубина : 16 бит
Метод сжатия : С потерями
Размер потока : 611 Мбайт (8%)
Заголовок : Original@DD5.1 AC3 ,640 Kbps, 48.0 KHz, 6 ch
Язык : Russian
Default : Нет
Forced : Нет
Меню
00:00:00.000 : en:Глава 01 / en:Глава 01
--

Скриншоты

-- -- --Релиз от: Nikolai.Baranov & PIRATIYA -- -- --
[Profile]  [PM] 
Display posts:    
Reply to topic

Current time is: 26-Jun 18:39

All times are UTC + 2



You cannot post new topics in this forum
You cannot reply to topics in this forum
You cannot edit your posts in this forum
You cannot delete your posts in this forum
You cannot vote in polls in this forum
You cannot attach files in this forum
You cannot download files in this forum