Кухня. Последняя битва / Kitchen The last battle [2017] ( Антон Федотов) [Комедия , BDRip 1080p] [DD5.1] [Лицензия ]

Reply to topic
 
Author
Message

Враг Нароода ®

Gender: Unknown

Longevity: 4 years 7 months

Posts: 314

Reputation: 1 [+] [-]

Враг Нароода · Post 19-Jun-2017 17:06

[Quote] 

--Кухня. Последняя битва / Kitchen The last battle-- --Год выпуска: 2017
Выпущено: Россия ,Фонд кино, Forever Films, Yellow, Black & White
Жанр: Комедия
Продолжительность: 01:54:27
Озвучка : -Русская- -Лицензия
Субтитры: НЕТ
--IMDB [ --Режиссер:
Антон Федотов--В ролях: Дмитрий Нагиев, Дмитрий Назаров, Сергей Лавыгин, Олег Табаков, Анфиса Черных, Кирилл Ковбас, Сергей Епишев, Никита Тарасов, Михаил Тарабукин, Михаил Башкатов--
Раньше Ивана интересовали только шифровальные коды и хакерские программы, но всё меняется, когда он встречает красотку-француженку Анну со взрывным характером и русскими корнями. Оба летят в Сочи, чтобы принять участие в Чемпионате мира среди поваров: она выступает за Францию, а он — за Россию. Но Ивану ещё нужно разобраться в отношениях с недавно возникшим в его жизни папой — знаменитым шеф-поваром Виктором Бариновым, заслужить доверие его кулинарной суперкоманды, избежать тюрьмы за взлом сайта Минобороны и… помочь телеведущему Дмитрию Нагиеву сбежать из горного села в Абхазии, где его заставляют жениться.
-- --Качество :BDRip 1080p - Исходник : - Blu-ray RUS 1080p
Формат: MKV
Видео кодек: H264
Видео: 9998Kбит/сек,1920х1080(16.9),в 29.970кадр/сек,,AVC(Baseline@L5.1)(1Ref Frames)
Аудио Кодек:AC3
Аудио #1:AC3 , 640 Kbps, 48.0 KHz, 6 ch- -Лицензия -Русский--

MediaInfo

Общее
Уникальный идентификатор : 191167728169073079541362432966496711131 (0x8FD190B17AE08DBA88D6132961A171DB)
Полное имя : C:\ХОББИ\ПИРАТИЯ(PIRATIYA)\КУХНЯ-ПОСЛЕДНЯЯ БИТВА\Kitchen_The_last_battle_2017_Russian_Licensed_H264_DD5.1_N.B_BDRip_1800p\Kitchen_The_last_battle_2017_Russian_Licensed_H264_DD5.1_N.B_BDRip_1800p.mkv
Формат : Matroska
Версия формата : Version 4 / Version 2
Размер файла : 10,4 Гбайт
Продолжительность : 2 ч. 20 м.
Режим общего битрейта : Переменный
Общий поток : 10,6 Мбит/сек
Название фильма : Kitchen_The_last_battle_2017_Russian_Licensed_H264_DD5.1_N.B_BDRip_1800p
Дата кодирования : UTC 2017-06-19 11:13:19
Программа кодирования : mkvmerge v12.0.0 ('Trust / Lust') 64bit
Библиотека кодирования : libebml v1.3.4 + libmatroska v1.4.5
Видео
Идентификатор : 1
Формат : AVC
Формат/Информация : Advanced Video Codec
Профиль формата : Baseline@L5.1
Параметр CABAC формата : Нет
Параметр ReFrames формата : 1 кадр
Параметр GOP формата : M=1, N=12
Идентификатор кодека : V_MPEG4/ISO/AVC
Продолжительность : 2 ч. 20 м.
Вид битрейта : Переменный
Битрейт : 9998 Кбит/сек
Максимальный битрейт : 12,0 Мбит/сек
Ширина : 1920 пикселей
Высота : 1080 пикселей
Соотношение сторон : 16:9
Режим частоты кадров : Постоянный
Частота кадров : 29,970 (29970/1000) кадров/сек
Частота кадров в оригинале : 24,000 кадра/сек
Цветовое пространство : YUV
Субдискретизация насыщенности : 4:2:0
Битовая глубина : 8 бит
Тип развёртки : Прогрессивная
Бит/(Пиксели*Кадры) : 0.161
Размер потока : 9,79 Гбайт (94%)
Заголовок : Kitchen_The_last_battle_2017_Russian_Licensed_H264_DD5.1_N.B_BDRip_1800p
Язык : Russian
Default : Да
Forced : Нет
Аудио
Идентификатор : 2
Формат : AC-3
Формат/Информация : Audio Coding 3
Параметр Endianness формата : Big
Идентификатор кодека : A_AC3
Продолжительность : 2 ч. 20 м.
Вид битрейта : Постоянный
Битрейт : 640 Кбит/сек
Каналы : 6 каналов
Расположение каналов : Front: L C R, Side: L R, LFE
Частота : 48,0 КГц
Частота кадров : 31,250 кадров/сек (1536 spf)
Битовая глубина : 16 бит
Метод сжатия : С потерями
Размер потока : 642 Мбайт (6%)
Заголовок : Rus Original@DD5.1 AC3 ,640 Kbps, 48.0 KHz, 6 ch
Язык : Russian
ServiceKind/String : Complete Main
Default : Да
Forced : Нет
Меню
00:00:00.000 : en:Глава 01 / en:Глава 01
--

Скриншоты

-- -- -- --Релиз от: Nikolai.Baranov & PIRATIYA -- -- -- --
[Profile]  [PM] 
Display posts:    
Reply to topic

Current time is: 19-Apr 10:24

All times are UTC + 2



You cannot post new topics in this forum
You cannot reply to topics in this forum
You cannot edit your posts in this forum
You cannot delete your posts in this forum
You cannot vote in polls in this forum
You cannot attach files in this forum
You cannot download files in this forum