Больница Никербокер / The Knick (сезон 1, серия 1-10 из 10) (Стивен Содерберг) [2014, Драма, медицина, HDTVRip-AVC 1080p] [MVO] [Amedia]

Reply to topic
 
Author
Message

Враг Нароода ®

Gender: Unknown

Longevity: 7 years

Posts: 496

Reputation: 1 [+] [-]

Враг Нароода · Post 13-Sep-2014 10:50

[Quote] 

--Больница Никербокер / The Knick-- --Год выпуска: 2014
Выпущено: США, Anonymous Content, Cinemax
Жанр:: Драма, медицина
Продолжительность: 00:55:00
Сезон:: 1
Серия:: 1-10
Количество серий в сезоне:: 10
Озвучка: Профессиональная многоголосая закадровая (NovaMedia по заказу Amedia)
Субтитры: Русские-- --Режиссер: Стивен Содерберг--В ролях: Клайв Оуэн, Эрик Джонсон, Майкл Ангарано, Андре Холлэнд, Джульетта Райлэнс, Крис Салливан, Ив Хьюсон, Кэра Сеймур, Джереми Бобб, Грейнджер Хайнс, Сюзанна Савой-- «Это начало XX века, детка. Мы жили и любили как могли»
Среднестатистический современный зритель знаком как минимум с двумя сериалами на медицинскую тему, поэтому словами «дефибриллятор», «энцефалопатия», «резекция» и «анастомоз» нас уже не напугаешь. Кровь, любовь на рабочем месте и талантливые врачи-нарколыги тоже трепета не вызовут. А вот история про то, как это все затевалось — очень даже интересна.
Сюжет. Не буду врать, это только мое мнение, но сюжет не самый захватывающий. Все хорошо, все в порядке, но предсказуемо. С другой стороны, может пора нам всем прекратить трепать себе нервы истериками сценаристов и просто молча посмотреть, поразмышлять, без лишних шумов и душераздирающих поворотов? В конце концов это история целой больницы, а не конкретных персонажей. Таким образом мы следим не за человеком, а за целой эпохой, ее важным периодом и узнаем много нового о том, как это было когда электрический свет только-только вошел в обиход, а кокаин числился обычным обезболивающим препаратом.
Актеры. Очень колоритный состав. Все манерны, все приятны, все как ты себе их и представлял. Ну и разумеется все чудно играют, хотя это сложнее чем кажется — изображать человека прошлого века.
Обстановка. Это очень атмосферный фильм. Кажется, там весь смысл именно в атмосфере. Нам не показывают лишнее, каждый кадр осмыслен, подготовлен и показан с какой-то целью, а декорации… когда видишь все эти штуковины хочется поаплодировать. В итоге после просмотра у тебя остается не хилый такой осадок этой самой атмосферы и ты как наркоман, с дрожью в пальцах, ждешь следующей серии, потому что тебе хочется, нет, тебе необходимо снова почувствовать эту обстановку.
Музыка. Музыка в сериале вообще за гранью добра и зла. Она не имеет ничего общего с музыкой и звучанием того времени и являет нам ambient с упором на industrial, чем заводит наше воображение еще больше. От себя скажу, это лучший сериальный original score, который я когда-либо слышала.
Итог. «The Knick» — это что-то новое в теме, которая нам уже давно знакома. Именно этого кусочка не хватало для более-менее полного обывательского представления о том, что такое художественный мир медицины.
--Качество :HDTVRip-AVC 1080p
Формат: MPEG-4
Видео кодек: H264
Видео: 827169/сек,1920х1080(16.9),в 25.000кадр/сек,AVC(Baseline@L4.0)(1Ref Frames)
Аудио кодек: AAC
Аудио Russian:400Кбит/сек,48.0КГц,2канала,AAC,(Version4)(LC)--

Доп. информация:

Звуковая дорожка сделана путем наложения чистого голоса озвучивателей на центральный канал оригинальной дорожки. Качество идентично звуковой дорожке.
--

Список эпизодов сезона


01. Method and Madness / Безумие и Последовательность
02. Mr. Paris Shoes / Господин парижский ботинок
03. The Busy Flea / Деловая блошка
04. Where's the Dignity / Где же тут достоинство?
05. They Capture the Heat / Они удерживают жару
06. Start Calling Me Dad / Называй меня папой
07. Get the Rope / Неси верёвку
08. Working Late a Lot / Много работаешь по вечерам
09. The Golden Lotus / Золотой лотус
10. Crutchfield
--

MediaInfo сезона

General
Полное имя : D:\С Е Р И А Л Ы\Больница Никербокер\THE_KNICK_2014_S01_RUS[Amedia]_x264_Nikolai.Baranov_HDTVRip-AVC_(1080p)\THE_KNICK_2014_S01Е01_RUS[Amedia]_x264_Nikolai.Baranov_HDTVRip-AVC_(1080p).mp4
Формат : MPEG-4
Профиль формата : Base Media
Идентификатор кодека : isom
Размер файла : 3.18 GiB
Продолжительность : 53mn 7s
Режим общего битрейта : Variable
Общий поток : 8 574 Kbps
Название фильма : Release for Piratbit.net_R.G. HD-Films
Дата кодирования : UTC 2014-09-12 05:54:55
Дата пометки : UTC 2014-09-12 05:54:55
Программа кодирования : Lavf51.12.1
Video
Идентификатор : 1
Формат : AVC
Формат/Информация : Advanced Video Codec
Профиль формата : Baseline@L4.0
Параметр CABAC формата : No
Параметр ReFrames формата : 1 frame
Параметр GOP формата : M=1, N=12
Идентификатор кодека : avc1
Идентификатор кодека/Информация : Advanced Video Coding
Продолжительность : 53mn 7s
Вид битрейта : Variable
Битрейт : 8 169 Kbps
Максимальный битрейт : 12.0 Mbps
Ширина : 1 920 pixels
Высота : 1 080 pixels
Соотношение сторон : 16:9
Режим частоты кадров : Constant
Частота кадров : 25.000 fps
Частота кадров в оригинале : 24.000 fps
Цветовое пространство : YUV
Субдискретизация насыщенности : 4:2:0
Битовая глубина : 8 bits
Тип развёртки : Progressive
Бит/(Пиксели*Кадры) : 0.158
Размер потока : 3.03 GiB (95%)
Дата кодирования : UTC 2014-09-12 05:54:55
Дата пометки : UTC 2014-09-12 05:54:55
Audio
Идентификатор : 2
Формат : AAC
Формат/Информация : Advanced Audio Codec
Профиль формата : LC
Идентификатор кодека : 40
Продолжительность : 53mn 7s
Вид битрейта : Variable
Битрейт : 400 Kbps
Каналы : 2 channels
Channel(s)_Original : 6 channels
Расположение каналов : Front: L C R, Side: L R, LFE
Частота : 48.0 KHz
Метод сжатия : Lossy
Размер потока : 152 MiB (5%)
Язык : Russian
Дата кодирования : UTC 2014-09-12 05:54:55
Дата пометки : UTC 2014-09-12 05:54:55
--

Скриншоты

-- --

Как закачать отдельный файл

1. Открыть торрент
2. Снять галки с тех файлов торрента, которые мы не хотим закачивать. Оставляем только на нужных нам файлах (файле).
3. Нажать О.К.
В клиенте utorrent
Инструкция
1) Открыть торрент

2) Снять галки с тех файлов торрента, которые мы не хотим закачивать:
* либо вручную, снимая с каждого файла галку( скрин №1)
* либо, нажав кнопку "Снять метки (Select None)", сняв сразу со всех файлов(скрин №2)
№1

№2

Оставляем только на нужных нам файлах (файле).

3)Нажать О.К
-- -- --Внимание!!! 19.10. 2014. РАЗДАЧА ОБНОВЛЕНА. финал сезона. ОБНОВИТЕ ТОРЕНТ ФАЙЛ.ПРИЯТНОГО ПРОСМОТРА . --Релиз от: Nikolai.Baranov -- -- -- --
[Profile]  [PM] 
Display posts:    
Reply to topic

Current time is: 27-Sep 02:04

All times are UTC + 2



You cannot post new topics in this forum
You cannot reply to topics in this forum
You cannot edit your posts in this forum
You cannot delete your posts in this forum
You cannot vote in polls in this forum
You cannot attach files in this forum
You cannot download files in this forum