Готэм / Gotham (Дэнни Кэннон, Т.Дж. Скотт, Дермотт Даунс) (Cезон 1, Cерия 1-22 из 22) [2014-2015, Триллер, драма, криминал, WEBDLRip-AVC] [1080р] [MVO] [NewStudio]

Reply to topic
 
Author
Message

Враг Нароода ®

Gender: Unknown

Longevity: 5 years 5 months

Posts: 395

Reputation: 1 [+] [-]

Враг Нароода · Post 02-Oct-2014 10:58

[Quote] 

-- --Готэм / Gotham Cезон 1, Cерии 1-22 из 22 -- -- --Год выпуска: 2014-2015
Выпущено: США, Primrose Hill Productions, DC Comics, Warner Bros. Television
Жанр: Триллер, драма, криминал
Продолжительность: 00:49:28
Сезон: 1
Серия: 1-22
Количество серий в сезоне: 22
Озвучка:Профессиональная многоголосая закадровая(NewStudio)
Субтитры: Русские,Английские--Сайт сериала:
--Режиссер: Дэнни Кэннон, Т.Дж. Скотт, Дермотт Даунс--В ролях: Бенжамин МакКензи, Донал Лог, Дэвид Мазоуз, Забрина Гевара, Шон Пертуи, Робин Тейлор, Эрин Ричардс, Камрен Бикондова, Кори Майкл Смит, Джада Пинкетт Смит, Эндрю Стюарт-Джонс, Виктория Картагена, Джон Доумен, Дрю Пауэлл, Ричард Кайнд, Грэйсон МакКоч, Кэрол Кейн, Макензи Ли, Дэнни Мастроджорджо-- Готэм — город порока
В свет вышел первый, пилотный, выпуск телесериала «Готэм», повествование которого будет закручено вокруг одного ключевого персонажа — Джима Гордона, и его нелегкой службы детектива в прогнивающем от коррупции городе Готэм.
Начну сразу с минусов, что бросаются в глаза. Наверняка многие помнят мультипликационную версию Бэтмена, его стилистику и персонажей. Так вот, действие сериала происходит отнюдь не в стильных 80-ых годах, но при этом красочные панорамные виды города и готический стиль архитектуры радует глаз, но это в первые моменты, далее частые вставки пейзажей города вызывают только ряб в глазах.
Осведомленные или просто знакомые с вселенной бэтмена, зрители встретят многих известных персонажей, в том числе и совсем юных (и да, я не только о Брюсе Уэйне, ведь повествование сериала берет начало именно с той самой трагической ночи для потомка Уэйнов). В телесериальной версии разочаровал только один персонаж — это Альфред Пенниворт (дворецкий и слуга в особняке Уэйнов, если кто не смог вспомнить), который предстал перед зрителями мрачным типом со стальным серым взглядом, готовый в любой момент читать нотации и повышать голос на ребенка, в то время как в версии мультфильма, Нолановской трилогии «Темный рыцарь», да и в старых экранизациях он всегда был мудрым наставником без лишнего напряжения во взгляде или голосе. Не совсем ясно это атмосферное перевоплощение персонажа, который имел достаточно сильное влияние на готэмского рыцаря.
В целом и в общем первый выпуск совсем не плох, красиво смотрится, схватки не выглядят нелепыми, да и игра актеров не проседает, как того можно опасаться.
Итог: интересная затея с повествованием истории простого детектива, попавшего в преступный мир коррумпированного города. Определенно этой осенью и зимой будет что посмотреть!
-- --Качество : WEB-DLRip-AVC 1080p
Формат: MPEG-4
Видео кодек: H264
Видео: 7248ит/сек,1920х1080(16.9),в 25.000кадр/сек,AVC(Baseline@L4.0)(1Ref Frames)
Аудио кодек: AAC
Аудио Russian:454Кбит/сек,48.0КГц,2канала,AAC,(Version4)(LC)-- --

Доп. информация:

Звуковая дорожка сделана путем наложения чистого голоса озвучивателей на центральный канал оригинальной дорожки. Качество идентично звуковой дорожке.
--

Список эпизодов сезона


01. Пилот / Pilot
02. Селина Кайл / Selina Kyle
03. Шародув / Baloonman
04. Аркам / Arkham
05. Гадюка / Viper
06. Дух Козла / Spirit of the Goat
07. Зонтик Пингвина / Penguin's Umbrella
08. Маска / The Mask
09. Харви Дент / Harvey Dent
10. Ловкрафт / LoveCraft
11. Галерея бандитов / Rogues Gallery
12. Что птичка ему напела / What the Little Bird Told Him
13. С возвращением, Джим Гордон / Welcome Back, Jim Gordon
14. Ужасный доктор Крейн / The Fearsome Dr. Crane
15. Пугало / The Scarecrow
16. Слепой предсказатель / The Blind Fortune Teller
17. Красный Колпак / Red Hood
18 У каждого свой Кобблпот / Everyone Has a Cobblepot
19 Хищные звери / Beasts of Prey
20. Под нож / Under the Knife
21. Между молотом и наковальней / The Anvil or the Hammer
22. Все счастливые семьи похожи / All Happy Families Are Alike
--

MediaInfo сезона

General
Полное имя : D:\С Е Р И А Л Ы\Готэм\GOTHAM_2014_S011_RUS[NewStudio_TV]_x264_Nikolai.Baranov_WEB-DLRip-AVC_(1080p)\GOTHAM_2014_S011E01_RUS[NewStudio_TV]_x264_Nikolai.Baranov_WEB-DLRip-AVC_(1080p).mp4
Формат : MPEG-4
Профиль формата : Base Media
Идентификатор кодека : isom
Размер файла : 2.65 GiB
Продолжительность : 49mn 18s
Режим общего битрейта : Variable
Общий поток : 7 707 Kbps
Название фильма : The Strain 1x11 The Third Rail @ AlexFilm
Дата кодирования : UTC 2014-09-26 06:31:28
Дата пометки : UTC 2014-09-26 06:31:28
Программа кодирования : Lavf51.12.1
Video
Идентификатор : 1
Формат : AVC
Формат/Информация : Advanced Video Codec
Профиль формата : Baseline@L4.0
Параметр CABAC формата : No
Параметр ReFrames формата : 1 frame
Параметр GOP формата : M=1, N=12
Идентификатор кодека : avc1
Идентификатор кодека/Информация : Advanced Video Coding
Продолжительность : 49mn 18s
Вид битрейта : Variable
Битрейт : 7 248 Kbps
Максимальный битрейт : 10.5 Mbps
Ширина : 1 920 pixels
Высота : 1 080 pixels
Соотношение сторон : 16:9
Режим частоты кадров : Constant
Частота кадров : 25.000 fps
Частота кадров в оригинале : 24.000 fps
Цветовое пространство : YUV
Субдискретизация насыщенности : 4:2:0
Битовая глубина : 8 bits
Тип развёртки : Progressive
Бит/(Пиксели*Кадры) : 0.140
Размер потока : 2.50 GiB (94%)
Язык : English
Дата кодирования : UTC 2014-09-26 06:31:28
Дата пометки : UTC 2014-09-26 06:31:28
Audio
Идентификатор : 2
Формат : AAC
Формат/Информация : Advanced Audio Codec
Профиль формата : LC
Идентификатор кодека : 40
Продолжительность : 49mn 18s
Вид битрейта : Variable
Битрейт : 454 Kbps
Каналы : 2 channels
Channel(s)_Original : 6 channels
Расположение каналов : Front: L C R, Side: L R, LFE
Частота : 48.0 KHz
Метод сжатия : Lossy
Размер потока : 160 MiB (6%)
Язык : Russian
Дата кодирования : UTC 2014-09-26 06:31:28
Дата пометки : UTC 2014-09-26 06:31:28
--

Скриншоты

-- --

Как закачать отдельный файл

1. Открыть торрент
2. Снять галки с тех файлов торрента, которые мы не хотим закачивать. Оставляем только на нужных нам файлах (файле).
3. Нажать О.К.
В клиенте utorrent
Инструкция
1) Открыть торрент

2) Снять галки с тех файлов торрента, которые мы не хотим закачивать:
* либо вручную, снимая с каждого файла галку( скрин №1)
* либо, нажав кнопку "Снять метки (Select None)", сняв сразу со всех файлов(скрин №2)
№1

№2

Оставляем только на нужных нам файлах (файле).

3)Нажать О.К
-- -- --Внимание!!! 08.05. 2015. РАЗДАЧА ОБНОВЛЕНА.ФИНАЛ СЕЗОНА.ОБНОВИТЕ ТОРЕНТ ФАЙЛ.ПРИЯТНОГО ПРОСМОТРА . --Релиз от: Nikolai.Baranov -- -- -- --
[Profile]  [PM] 
Display posts:    
Reply to topic

Current time is: 20-Feb 16:01

All times are UTC + 2



You cannot post new topics in this forum
You cannot reply to topics in this forum
You cannot edit your posts in this forum
You cannot delete your posts in this forum
You cannot vote in polls in this forum
You cannot attach files in this forum
You cannot download files in this forum