Элементарно / Elementary (Сезон 1-3, серии 1-72 из 72) [2012-2015, Драма, Криминал, Детектив, WEB-DLRip-AVC 720p] [DD5.1] [DUB] [Первый Канал Russia+NewStudio]

Reply to topic
 
Author
Message

Враг Нароода ®

Gender: Unknown

Longevity: 7 years

Posts: 495

Reputation: 1 [+] [-]

Враг Нароода · Post 10-Nov-2014 19:32

[Quote] 

-- --Элементарно / Elementary Сезон 1-3, серии 1-72 из 72-- --Год выпуска: 2012-2015
Выпущено: США , CBS Television Studios
Жанр: Драма, Криминал, Детектив
Продолжительность: 00:44:00
Сезон: 1-3
Серии: 1-72
Количество серий в сезоне: 72
Озвучка 1 сезона:Дубляж [Первый канал Россия]
Озвучка 2-3 сезона:Многоголосое профессиональное закадровое озвучание (NewStudio)
Субтитры: Русские , Английские --Официальный сайт
--Режиссер: Джон Дэвид Коулз, Майкл Куэста , John David Coles, Michael Cuesta , Майкл Куэста и др.--В ролях: Джонни Ли Миллер, Люси Лью, Эйдан Куинн, Билл Хек, Уорд Хортон, Мэнни Перез и др.-- При новости об очередном Шерлоке Холмсе почувствовал некоторый шок с примесью удовольствия, т. к. при всей моей любви к этому персонажу, кажется невозможным бесконечно плодить экранизации этих книг. Однако ещё остались сценаристы с хорошей фантазией, и этот сериал стоит рассматривать скорее не как экранизацию книг Конан Дойла, а как абсолютно иную историю с теми же фамилиями двух главных персонажей.
Структура серий и отношения между персонажами немедля вызывают у меня ассоциации с моим любимым детективным сериалом «Менталист» от этого же канала, т. к. Холмс Джонни Ли Миллера тоже прибегает к уловкам ради успешного завершения расследования и зачастую в открытую провоцирует людей ради подтверждения своей теории. Однако здесь это происходит в менее предсказуемой форме и иногда даже вызывает удивление.
Персонажей, взятых из оригинальных книг, всего трое. Причём их предыстории совершенно отличаются от оригинала, что добавляет интереса.
Шерлок Холмс в исполнении обаятельного британца Джонни Ли Миллера предстаёт с характером, похожим на оригинальный, но в более безэмоциональной форме, а из хобби он сохранил только скрипку, и то с подачи Ватсон.
Доктор Ватсон неожиданно предстаёт женщиной Джоан Ватсон в исполнении «Ангела Чарли» Люси Лью. Отсюда, никакой военной карьеры нет и в помине, и причины приезда к Холмсу самые что ни на есть деловые. Но в итоге они становятся друзьями, при этом она фактически также играет роль миссис Хадсон, которой здесь попросту нет.
Вместо инспектора Лестрейда фигурирует другой полицейский — Грегсон, который в книгах появляется всего один-два раза. Его отметить нечем, т. к. он просто доверяет Холмсу и спокойно терпит его эксцентричность.
У многих этот сериал, как второй «Шерлок Холмс в 21ом веке», непременно вызывает сравнение с британским «Шерлоком», который, без сомнения, великолепен. Однако я считаю, что их можно сравнивать только в мелких деталях, т. к. дух и сюжеты почти совершенно разные. Единственные вещи, вызвавшие у меня ассоциации с сериалом BBC — клетчатый шарф Холмса, позитивное и терпеливое отношение к Шерлоку главы полиции и время действия.
Таким образом, фанатам книжного Шерлока Холмса и версии Василия Ливанова не рекомендую, а просто любителям хорошего детектива — очень даже рекомендую, т. к. воспринимать «Элементарно» как ещё одного Холмса чрезвычайно трудно.
-- --Качество : WEB-DLRip-AVC 720p
Формат: MPEG-4
Видео кодек: H264
Видео: 3120Кбит/сек,1280х720(16.9),в 25.000кадр/сек,AVC(Baseline@L3.1)(1Ref Frames)
Аудио кодек: AAC
Аудио Russian Dolby Digital 5.1:455Кбит/сек,44.1КГц,6каналов,AAC,(Version4)(LC)-- --

Доп. информация:

Звуковая дорожка сделана путем наложения чистого голоса озвучивателей на центральный канал оригинальной дорожки. Качество идентично звуковой дорожке.
--

Список эпизодов сезонов

Список эпизодов 1 сезона
01. Пилот / Pilot
02. Пока ты спала / While You Were Sleeping
03. Пожиратель детей / Child Predator
04. Крысиные бега / The Rat Race
05. Меньшее зло / Lesser Evils
06. Опасный полет / Flight Risk
07. Единственный выход / One Way To Get Off
08. Длинный запал / The Long Fuse
09. Доконать себя / You Do It to Yourself
10. Левиафан / The Leviathan
11. Копаясь в грязном белье / Dirty Laundry
12. M. / M.
13. Красная команда / The Red Team
14. Гений дедукции / The Deductionist
15. Гигантская пушка, заряженная наркотиками / A Giant Gun, Filled with Drugs
16. Детали / Details
17. Запасной вариант / Possibility Two
18. Острое ощущение дежавю / Déjà Vu All Over Again
19 Снежные ангелы / Snow Angels
20 Страховка мертвеца / Dead Man's Switch
21 Важная веха в истории / A Landmark Story
22 Управление риском / Risk Management
23-24 Та самая женщина / Кое-что о героине / The Woman / Heroine)

Список эпизодов 2 сезона
01. Девятый шаг / Step Nine
02. Решение задачи / Solve for X
03. Всё человечество / We Are Everyone
04 Отравленная ручка / Poison Pen
05. Древняя история / Ancient History
06 Неестественный союз / An Unnatural Arrangement
07 Маркиза / The Marchioness
08 Кровь - не вода / Blood Is Thicker
09 Под угрозой / On the Line
10 Колебания / Tremors
11 Внутреннее расследование / Internal Audit
12 Исчадие ада / The Diabolical Kind
13 Семейные тайны / All in the Family
14 Обреченный таксон / Dead Clade Walking
15. Балетный труп / Corpse De Ballet
16. Идеальное решение / The One Percent Solution
17 Уши в подарок / Ears to You
18 Ищейка раковых клеток / The Hound of the Cancer Cells
19 Челюсти Аарона Колвилла / The Many Mouths of Aaron Colville
20 В пустоте / No Lack of Void
21 Человек с рассеченной губой / The Man with the Twisted Lip
22 Да наступит тьма / Paint it Black)
23 Искусство в крови / Art in the Blood
24 Великий эксперимент / The Grand Experiment

Список эпизодов 3 сезона
01. Врагов хватит всем / Enough Nemesis to Go Around
02. Пять апельсиновых зернышек / The Five Orange Pipz
03. Математическая загадка / Just a Regular Irregular
04. Белла / Bella
05. Грабёж / Rip Off
06. Опасные земли / Terra Pericolosa
07. Мускатные приключения / The Adventure of the Nutmeg Concoction
08. Последняя смена / End of Watch
09. Укол вечности / The Eternity Injection
10. Посеянные деньги / Seed Money
11. Важный клиент / The Illustrious Client
12. Та, что сбежала / The One That Got Away
13 Цикута / Hemlock
14 Женская особь / The Female of the Species
15 Когда твоя песенка спета / When Your Number's Up
16 Насколько тебе известно / For All You Know
17 Столкновение и лёд / T-Bone and the Iceman
18 Вид с Олимпа / The View from Olympus
19 Одна Ватсон, один Холмс / One Watson, One Holmes
20 Семь раз отмерь / A Stitch in Time
21 Под моей кожей / Under My Skin
22 Лучший выход - всегда напролом / The Best Way Out Is Always Through
23 Опустевший улей / Absconded
24 Контролируемое падение / Controlled Descent
--

MediaInfo 1 сезона

eneral
Полное имя : G:\К И Н О\ELEMENTARY_2012_-_2014_S01_-_S03_RUS[1canal_Russia+NewStudio.TV]_DD5.1_x264_Nikolai.Baranov_HDTVRip-AVC_(720p)\S01\1\Elementary_2012_S01Е01_RUS[1canal_Russia]_DD5.1_x264_Nikolai.Baranov_HDTVRip-AVC_(720p).mp4
Формат : MPEG-4
Профиль формата : Base Media
Идентификатор кодека : isom
Размер файла : 1.14 GiB
Продолжительность : 45mn 43s
Режим общего битрейта : Variable
Общий поток : 3 579 Kbps
Дата кодирования : UTC 2013-01-11 14:02:52
Дата пометки : UTC 2013-01-11 14:02:52
Программа кодирования : Lavf51.12.1
Video
Идентификатор : 1
Формат : AVC
Формат/Информация : Advanced Video Codec
Профиль формата : Baseline@L3.1
Параметр CABAC формата : No
Параметр ReFrames формата : 1 frame
Параметр GOP формата : M=1, N=12
Идентификатор кодека : avc1
Идентификатор кодека/Информация : Advanced Video Coding
Продолжительность : 45mn 43s
Вид битрейта : Variable
Битрейт : 3 120 Kbps
Максимальный битрейт : 4 500 Kbps
Ширина : 1 280 pixels
Высота : 720 pixels
Соотношение сторон : 16:9
Режим частоты кадров : Constant
Частота кадров : 25.000 fps
Частота кадров в оригинале : 24.000 fps
Цветовое пространство : YUV
Субдискретизация насыщенности : 4:2:0
Битовая глубина : 8 bits
Тип развёртки : Progressive
Бит/(Пиксели*Кадры) : 0.135
Размер потока : 1 020 MiB (87%)
Дата кодирования : UTC 2013-01-11 14:02:52
Дата пометки : UTC 2013-01-11 14:02:52
Audio
Идентификатор : 2
Формат : AAC
Формат/Информация : Advanced Audio Codec
Профиль формата : LC
Идентификатор кодека : 40
Продолжительность : 45mn 43s
Вид битрейта : Variable
Битрейт : 455 Kbps
Каналы : 6 channels
Расположение каналов : Front: L C R, Side: L R, LFE
Частота : 44.1 KHz
Метод сжатия : Lossy
Размер потока : 149 MiB (13%)
Дата кодирования : UTC 2013-01-11 14:02:52
Дата пометки : UTC 2013-01-11 14:02:52
--

MediaInfo 2 сезона

General
Полное имя : G:\К И Н О\ELEMENTARY_2012_-_2014_S01_-_S03_RUS[1canal_Russia+NewStudio.TV]_DD5.1_x264_Nikolai.Baranov_HDTVRip-AVC_(720p)\S02\1\Elementary_2013_S02Е01_RUS[NewStudio.TV]_DD5.1_x264_Nikolai.Baranov_WEB-DLRip-AVC_(720p).mp4
Формат : MPEG-4
Профиль формата : Base Media
Идентификатор кодека : isom
Размер файла : 1.07 GiB
Продолжительность : 43mn 18s
Режим общего битрейта : Variable
Общий поток : 3 546 Kbps
Дата кодирования : UTC 2013-10-06 11:05:33
Дата пометки : UTC 2013-10-06 11:05:33
Программа кодирования : Lavf51.12.1
Video
Идентификатор : 1
Формат : AVC
Формат/Информация : Advanced Video Codec
Профиль формата : Baseline@L3.1
Параметр CABAC формата : No
Параметр ReFrames формата : 1 frame
Параметр GOP формата : M=1, N=12
Идентификатор кодека : avc1
Идентификатор кодека/Информация : Advanced Video Coding
Продолжительность : 43mn 18s
Вид битрейта : Variable
Битрейт : 3 116 Kbps
Максимальный битрейт : 4 500 Kbps
Ширина : 1 280 pixels
Высота : 720 pixels
Соотношение сторон : 16:9
Режим частоты кадров : Constant
Частота кадров : 25.000 fps
Частота кадров в оригинале : 24.000 fps
Цветовое пространство : YUV
Субдискретизация насыщенности : 4:2:0
Битовая глубина : 8 bits
Тип развёртки : Progressive
Бит/(Пиксели*Кадры) : 0.135
Размер потока : 965 MiB (88%)
Язык : English
Дата кодирования : UTC 2013-10-06 11:05:33
Дата пометки : UTC 2013-10-06 11:05:33
Audio
Идентификатор : 2
Формат : AAC
Формат/Информация : Advanced Audio Codec
Профиль формата : LC
Идентификатор кодека : 40
Продолжительность : 43mn 18s
Вид битрейта : Variable
Битрейт : 426 Kbps
Каналы : 6 channels
Расположение каналов : Front: L C R, Side: L R, LFE
Частота : 44.1 KHz
Метод сжатия : Lossy
Размер потока : 132 MiB (12%)
Дата кодирования : UTC 2013-10-06 11:05:33
Дата пометки : UTC 2013-10-06 11:05:33
--

MediaInfo 3 сезона

General
Полное имя : G:\К И Н О\ELEMENTARY_2012_-_2014_S01_-_S03_RUS[1canal_Russia+NewStudio.TV]_DD5.1_x264_Nikolai.Baranov_HDTVRip-AVC_(720p)\S03\1\Elementary_2014_S03Е01_RUS[NewStudio.TV]_x264_Nikolai.Baranov_WEB-DLRip-AVC_(720p).mp4
Формат : MPEG-4
Профиль формата : Base Media
Идентификатор кодека : isom
Размер файла : 1.08 GiB
Продолжительность : 43mn 20s
Режим общего битрейта : Variable
Общий поток : 3 559 Kbps
Дата кодирования : UTC 2014-11-03 04:07:41
Дата пометки : UTC 2014-11-03 04:07:41
Программа кодирования : Lavf51.12.1
Video
Идентификатор : 1
Формат : AVC
Формат/Информация : Advanced Video Codec
Профиль формата : Baseline@L3.1
Параметр CABAC формата : No
Параметр ReFrames формата : 1 frame
Параметр GOP формата : M=1, N=12
Идентификатор кодека : avc1
Идентификатор кодека/Информация : Advanced Video Coding
Продолжительность : 43mn 20s
Вид битрейта : Variable
Битрейт : 3 113 Kbps
Максимальный битрейт : 4 500 Kbps
Ширина : 1 280 pixels
Высота : 720 pixels
Соотношение сторон : 16:9
Режим частоты кадров : Constant
Частота кадров : 25.000 fps
Частота кадров в оригинале : 24.000 fps
Цветовое пространство : YUV
Субдискретизация насыщенности : 4:2:0
Битовая глубина : 8 bits
Тип развёртки : Progressive
Бит/(Пиксели*Кадры) : 0.135
Размер потока : 965 MiB (87%)
Язык : English
Дата кодирования : UTC 2014-11-03 04:07:41
Дата пометки : UTC 2014-11-03 04:07:41
Audio
Идентификатор : 2
Формат : AAC
Формат/Информация : Advanced Audio Codec
Профиль формата : LC
Идентификатор кодека : 40
Продолжительность : 43mn 20s
Вид битрейта : Variable
Битрейт : 441 Kbps
Каналы : 6 channels
Расположение каналов : Front: L C R, Side: L R, LFE
Частота : 48.0 KHz
Метод сжатия : Lossy
Размер потока : 137 MiB (12%)
Язык : Russian
Дата кодирования : UTC 2014-11-03 04:07:41
Дата пометки : UTC 2014-11-03 04:07:41
--

Скриншоты 1 сезона

--

Скриншоты 2 сезона

--

Скриншоты 3 сезона

-- 1 сезон-- 2 сезон-- 3 сезон--

Как закачать отдельный файл

1. Открыть торрент
2. Снять галки с тех файлов торрента, которые мы не хотим закачивать. Оставляем только на нужных нам файлах (файле).
3. Нажать О.К.
В клиенте utorrent
Инструкция
1) Открыть торрент

2) Снять галки с тех файлов торрента, которые мы не хотим закачивать:
* либо вручную, снимая с каждого файла галку( скрин №1)
* либо, нажав кнопку "Снять метки (Select None)", сняв сразу со всех файлов(скрин №2)
№1

№2

Оставляем только на нужных нам файлах (файле).

3)Нажать О.К
-- -- --Внимание!! 17.05. 2015. РАЗДАЧА ОБНОВЛЕНА.ФИНАЛ СЕЗОНА.ОБНОВИТЕ ТОРЕНТ ФАЙЛ.ПРИЯТНОГО ПРОСМОТРА .--Релиз от: Nikolai.Baranov -- -- -- --
[Profile]  [PM] 
Display posts:    
Reply to topic

Current time is: 21-Sep 13:11

All times are UTC + 2



You cannot post new topics in this forum
You cannot reply to topics in this forum
You cannot edit your posts in this forum
You cannot delete your posts in this forum
You cannot vote in polls in this forum
You cannot attach files in this forum
You cannot download files in this forum