Константин / Constantine (Сезон 1, Серия 1-13 из 13) ( Нил Маршалл) [2014-2015, Ужасы, фэнтези, боевик, WEBDLRip-AVC] [1080р] [MVO] [AlexFilm]

Reply to topic
 
Author
Message

Враг Нароода ®

Gender: Unknown

Longevity: 7 years

Posts: 495

Reputation: 1 [+] [-]

Враг Нароода · Post 13-Nov-2014 20:03

[Quote] 

-- --Константин / Constantine Сезон 1, Серия 1-13 из 13 -- --Год выпуска: 2014-2015
Выпущено: США, DC Comics, Warner Bros. Television
Жанр: Ужасы, фэнтези, боевик
Продолжительность: 00:43:00
Сезон: 1
Серия: 1-13
Количество серий в сезоне: 13
Перевод: Doctor Joker и MartinaG
Монтаж и сведение звука: Михаил Шорыгин
Роли озвучивали: Евгения Тихонова, Михаил Суслов, Сергей Пономарёв, Константин Погодаев, Владимир Курдов
Озвучка:Профессиональная многоголосая закадровая(AlexFilm)
Субтитры: Русские,Английские--Сайт сериала:
--Режиссер: Нил Маршалл--В ролях: Мэтт Райан, Люси Гриффитс, Хэролд Перрино, Чарльз Халфорд, Майлз Андерсон, Джереми Дэвис, Джулия Леман, Марк Эшворт, Хиллари Брант-- Бывалый охотник на демонов и оккультист Джон Константин специализируется на задании жару аду. Вооруженный таинственными знаниями темных искусств и своим острым умом, он ведет неравную борьбу…ну или по крайней мере вел. Так как его душа уже все равно проклята и попадет в ад, он решает оставить жизнь борца за добро, но когда демоны нацеливаются на Лив, дочь одного из самых давних друзей Константина, он неохотно возвращается, и он сделает все возможное, чтобы спасти ее.-- --Качество : WEB-DLRip-AVC 1080p
Формат: MPEG-4
Видео кодек: H264
Видео: 7240Кбит/сек,1920х1080(16.9),в 25.000кадр/сек,AVC(Baseline@L4.0)(1Ref Frames)
Аудио кодек: AAC
Аудио Russian:451Кбит/сек,48.0КГц,2канала,AAC,(Version4)(LC)--

Доп. информация:

Звуковая дорожка сделана путем наложения чистого голоса озвучивателей на центральный канал оригинальной дорожки. Качество идентично звуковой дорожке.
--

Список эпизодов сезона


01. Пилот / Pilot
02. Тьма по ту сторону / The Darkness Beneath
03. Пластинка дьявола / The Devil's Vinyl
04. Пир друзей / A Feast of Friends
05. Танец вуду / Danse Vaudou
06 Гнев Калибана / Rage of Caliban
07 Блаженны проклятые / Blessed Are the Damned
08 Святой крайних мер / The Saint of Last Resorts
09 Святой крайних мер. Часть 2 / The Saint of Last Resorts: Part 2
10 Ты мне, я тебе / Quid Pro Quo
11. Целый мир / A Whole World Out There
12. Ангелы и служители бога / Angels and Ministers of Grace
13. Жду, стоя на углу / Waiting for the Man
--

MediaInfo сезона

General
Полное имя : G:\К И Н О\С Е Р И А Л Ы\Константин\CONSTANTINE_2014_S01_RUS[AlexFilm]_x264_Nikolai.Baranov_WEB-DLRip-AVC_(1080p)\Constantine_2014_S01E01_RUS[AlexFilm]_x264_Nikolai.Baranov_WEB-DLRip-AVC_(1080p).mp4
Формат : MPEG-4
Профиль формата : Base Media
Идентификатор кодека : isom
Размер файла : 2.31 GiB
Продолжительность : 43mn 0s
Режим общего битрейта : Variable
Общий поток : 7 695 Kbps
Название фильма : Constantine 1x01 Non Est Asylum @ AlexFilm
Дата кодирования : UTC 2014-10-26 08:48:42
Дата пометки : UTC 2014-10-26 08:48:42
Программа кодирования : Lavf51.12.1
Video
Идентификатор : 1
Формат : AVC
Формат/Информация : Advanced Video Codec
Профиль формата : Baseline@L4.0
Параметр CABAC формата : No
Параметр ReFrames формата : 1 frame
Параметр GOP формата : M=1, N=12
Идентификатор кодека : avc1
Идентификатор кодека/Информация : Advanced Video Coding
Продолжительность : 43mn 0s
Вид битрейта : Variable
Битрейт : 7 240 Kbps
Максимальный битрейт : 10.5 Mbps
Ширина : 1 920 pixels
Высота : 1 080 pixels
Соотношение сторон : 16:9
Режим частоты кадров : Constant
Частота кадров : 25.000 fps
Частота кадров в оригинале : 24.000 fps
Цветовое пространство : YUV
Субдискретизация насыщенности : 4:2:0
Битовая глубина : 8 bits
Тип развёртки : Progressive
Бит/(Пиксели*Кадры) : 0.140
Размер потока : 2.17 GiB (94%)
Язык : English
Дата кодирования : UTC 2014-10-26 08:48:42
Дата пометки : UTC 2014-10-26 08:48:42
Audio
Идентификатор : 2
Формат : AAC
Формат/Информация : Advanced Audio Codec
Профиль формата : LC
Идентификатор кодека : 40
Продолжительность : 43mn 0s
Вид битрейта : Variable
Битрейт : 451 Kbps
Каналы : 6 channels
Расположение каналов : Front: L C R, Side: L R, LFE
Частота : 48.0 KHz
Метод сжатия : Lossy
Размер потока : 139 MiB (6%)
Язык : Russian
Дата кодирования : UTC 2014-10-26 08:48:42
Дата пометки : UTC 2014-10-26 08:48:42
--

Скриншоты

-- ---

Как закачать отдельный файл

1. Открыть торрент
2. Снять галки с тех файлов торрента, которые мы не хотим закачивать. Оставляем только на нужных нам файлах (файле).
3. Нажать О.К.
В клиенте utorrent
Инструкция
1) Открыть торрент

2) Снять галки с тех файлов торрента, которые мы не хотим закачивать:
* либо вручную, снимая с каждого файла галку( скрин №1)
* либо, нажав кнопку "Снять метки (Select None)", сняв сразу со всех файлов(скрин №2)
№1

№2

Оставляем только на нужных нам файлах (файле).

3)Нажать О.К
-- -- --Внимание!!! 17.02. 2015. РАЗДАЧА ОБНОВЛЕНА. ФИНАЛ СЕЗОНА. ОБНОВИТЕ ТОРЕНТ ФАЙЛ.ПРИЯТНОГО ПРОСМОТРА . --Релиз от: Nikolai.Baranov -- -- -- --
[Profile]  [PM] 
Display posts:    
Reply to topic

Current time is: 20-Sep 13:51

All times are UTC + 2



You cannot post new topics in this forum
You cannot reply to topics in this forum
You cannot edit your posts in this forum
You cannot delete your posts in this forum
You cannot vote in polls in this forum
You cannot attach files in this forum
You cannot download files in this forum